VERSION	0.00.00	1.03.00
FES_MODE	0
BPM_DEF	205.000	205.000	205.000	205.000
MET_DEF	4	4
RESOLUTION	384
CLK_DEF	384
COMPATIBLE_CODE	MA2

BPM	0	0	205.000
MET	0	0	4	4

TAP	1	192	4
TAP	1	216	3
TAP	1	240	2
TAP	1	264	1
STR	1	288	0
SI_	1	288	0	96	36	3
TAP	1	312	7
TAP	1	336	6
TAP	1	360	5
STR	2	0	0
SI_	2	0	0	96	36	2
STR	2	72	0
SI_	2	72	0	96	36	5
TAP	2	144	0
TAP	2	240	7
TAP	2	288	0
TAP	2	336	1
TAP	2	336	6
TAP	3	48	2
TAP	3	96	4
TAP	3	144	3
TAP	3	144	5
TAP	3	192	3
TAP	3	240	1
STR	3	288	7
SI_	3	288	7	96	36	4
TAP	3	336	5
STR	4	0	7
SI_	4	0	7	96	36	5
STR	4	72	7
SI_	4	72	7	96	36	2
TAP	4	144	7
TAP	4	240	7
TAP	4	288	0
TAP	4	336	1
TAP	4	336	6
TAP	5	48	5
TAP	5	96	3
TAP	5	144	2
TAP	5	144	4
TAP	5	192	4
TAP	5	240	6
TAP	5	288	0
TAP	5	336	2
TAP	6	0	3
TAP	6	0	4
TAP	6	48	3
TAP	6	96	3
TAP	6	96	5
TAP	6	144	5
TAP	6	192	1
TAP	6	192	5
TAP	6	240	1
TAP	6	288	1
TAP	6	288	7
TAP	6	336	0
TAP	6	336	6
TAP	7	48	1
TAP	7	48	5
TAP	7	96	2
TAP	7	96	6
TAP	7	192	0
TAP	7	192	5
TAP	7	288	3
TAP	7	288	7
TAP	7	336	1
TAP	7	336	5
TAP	8	0	3
TAP	8	0	4
TAP	8	48	3
TAP	8	48	4
TAP	8	96	2
TAP	8	96	5
TAP	8	144	2
TAP	8	144	5
TAP	8	192	1
TAP	8	192	6
TAP	8	240	1
TAP	8	240	6
TAP	8	288	0
TAP	8	288	7
TAP	8	336	0
TAP	8	336	7
TAP	9	0	0
TAP	9	24	7
TAP	9	48	0
TAP	9	72	7
TAP	9	96	1
TAP	9	120	6
TAP	9	144	1
TAP	9	168	6
TAP	9	192	2
TAP	9	216	5
TAP	9	240	2
TAP	9	264	5
STR	9	288	3
SI_	9	288	3	96	72	0
STR	9	312	4
SI_	9	312	4	96	48	7
TAP	9	336	3
TAP	9	360	4
BRK	10	0	3
TAP	11	192	3
TAP	11	192	4
BRK	11	288	2
BRK	11	288	4
HLD	12	0	1	192
TAP	12	0	5
TAP	12	48	4
TAP	12	96	5
TAP	12	144	4
TAP	12	192	5
TAP	12	240	0
TAP	12	336	1
TAP	12	336	7
TAP	13	0	2
HLD	13	0	6	192
TAP	13	48	3
TAP	13	96	2
TAP	13	144	3
TAP	13	192	2
TAP	13	240	7
TAP	13	336	0
TAP	13	336	6
TAP	14	0	2
TAP	14	0	3
TAP	14	72	1
TAP	14	144	7
TAP	14	192	4
TAP	14	192	5
TAP	14	264	6
TAP	14	336	0
TAP	15	0	1
TAP	15	0	7
TAP	15	96	0
TAP	15	96	5
TAP	15	192	2
TAP	15	192	6
TAP	15	288	1
TAP	15	288	4
HLD	16	0	2	192
TAP	16	0	7
TAP	16	48	6
TAP	16	96	7
TAP	16	144	6
TAP	16	192	5
TAP	16	240	3
TAP	16	336	2
TAP	16	336	6
TAP	17	0	0
HLD	17	0	5	192
TAP	17	48	1
TAP	17	96	0
TAP	17	144	1
TAP	17	192	2
TAP	17	240	4
TAP	17	336	1
TAP	17	336	5
STR	18	0	0
SI_	18	0	0	96	48	5
TAP	18	96	0
STR	18	192	6
SI_	18	192	6	96	48	3
STR	18	288	2
SI_	18	288	2	96	48	7
TAP	18	288	6
TAP	19	0	2
STR	19	0	4
SI_	19	0	4	96	48	0
STR	19	96	3
SI_	19	96	3	96	48	7
TAP	19	96	4
TAP	19	192	3
STR	19	192	5
SI_	19	192	5	96	48	0
BRK	19	288	2
BRK	19	288	5
TAP	20	0	2
TAP	20	0	4
TAP	20	48	3
TAP	20	48	5
TAP	20	96	2
TAP	20	96	4
TAP	20	144	3
TAP	20	144	5
TAP	20	192	0
TAP	20	240	7
TAP	20	336	1
TAP	20	336	6
TAP	21	0	3
TAP	21	0	5
TAP	21	48	2
TAP	21	48	4
TAP	21	96	3
TAP	21	96	5
TAP	21	144	2
TAP	21	144	4
TAP	21	192	7
TAP	21	240	0
TAP	21	336	1
TAP	21	336	6
TAP	22	0	2
TAP	22	0	4
TAP	22	72	2
TAP	22	72	5
TAP	22	144	2
TAP	22	144	6
TAP	22	192	2
TAP	22	192	5
TAP	22	264	1
TAP	22	264	5
TAP	22	336	0
TAP	22	336	5
TAP	23	0	6
TAP	23	0	7
TAP	23	72	0
TAP	23	72	1
TAP	23	144	3
TAP	23	144	6
TAP	23	216	1
TAP	23	216	4
TAP	23	288	3
TAP	23	288	5
TAP	23	336	2
TAP	23	336	4
TAP	24	0	3
TAP	24	0	7
TAP	24	48	3
TAP	24	96	3
TAP	24	144	3
TAP	24	192	3
TAP	24	240	3
TAP	24	288	3
TAP	24	336	3
TAP	25	0	3
TAP	25	0	5
TAP	25	48	5
TAP	25	96	5
TAP	25	144	5
TAP	25	192	5
TAP	25	240	5
TAP	25	288	5
TAP	25	336	5
TAP	26	0	1
TAP	26	0	5
TAP	26	48	1
TAP	26	96	1
TAP	26	144	1
TAP	26	192	1
TAP	26	192	7
TAP	26	240	7
TAP	26	288	7
TAP	26	336	7
TAP	27	0	0
TAP	27	24	7
TAP	27	48	0
TAP	27	72	7
TAP	27	96	0
TAP	27	120	7
TAP	27	144	0
TAP	27	168	7
TAP	27	192	0
TAP	27	204	1
TAP	27	216	2
TAP	27	228	3
TAP	27	240	4
TAP	27	252	5
TAP	27	264	6
TAP	27	276	7
TAP	27	288	0
TAP	27	300	1
TAP	27	312	2
TAP	27	324	3
TAP	27	336	4
TAP	27	348	5
TAP	27	360	6
TAP	27	372	7
STR	28	0	0
SUR	28	0	0	96	192	6
STR	28	0	4
SUR	28	0	4	96	192	2
TAP	29	0	0
TAP	29	24	1
TAP	29	48	2
TAP	29	72	3
TAP	29	96	7
TAP	29	120	6
TAP	29	144	5
TAP	29	168	4
TAP	29	192	1
TAP	29	216	2
TAP	29	240	3
TAP	29	264	4
TAP	29	288	5
TAP	29	312	6
TAP	29	336	7
TAP	29	360	0
TAP	30	0	4
TAP	30	24	3
TAP	30	72	5
TAP	30	96	4
TAP	30	144	6
TAP	30	192	0
TAP	30	216	1
TAP	30	240	2
TAP	30	264	3
TAP	30	288	4
TAP	30	312	5
TAP	30	336	6
TAP	30	360	7
TAP	31	0	0
TAP	31	24	1
TAP	31	48	2
TAP	31	72	3
TAP	31	96	0
TAP	31	120	1
TAP	31	144	2
TAP	31	168	3
TAP	31	192	7
TAP	31	216	6
TAP	31	240	5
TAP	31	264	4
TAP	31	288	3
TAP	31	312	2
TAP	31	336	1
TAP	31	360	0
TAP	32	0	7
TAP	32	24	6
TAP	32	48	5
TAP	32	72	4
TAP	32	96	0
TAP	32	120	1
TAP	32	144	2
TAP	32	168	3
TAP	32	192	7
TAP	32	216	6
TAP	32	240	5
TAP	32	264	4
TAP	32	288	0
TAP	32	312	1
TAP	32	336	2
TAP	32	360	3
TAP	33	0	7
TAP	33	24	6
TAP	33	48	5
TAP	33	72	4
TAP	33	96	7
TAP	33	120	6
TAP	33	144	5
TAP	33	168	4
TAP	33	192	7
TAP	33	216	6
TAP	33	240	5
TAP	33	264	4
TAP	33	288	3
TAP	33	312	2
TAP	33	336	1
TAP	33	360	0
TAP	34	0	4
TAP	34	24	3
TAP	34	48	2
TAP	34	72	1
TAP	34	96	0
TAP	34	144	4
TAP	34	168	3
TAP	34	192	2
TAP	34	216	1
TAP	34	240	0
TAP	34	288	3
TAP	34	312	2
TAP	34	336	1
TAP	34	360	0
TAP	35	0	3
TAP	35	24	4
TAP	35	48	5
TAP	35	72	6
TAP	35	96	7
TAP	35	144	3
TAP	35	168	4
TAP	35	192	5
TAP	35	216	6
TAP	35	240	7
TAP	35	288	4
TAP	35	312	5
TAP	35	336	6
TAP	35	360	7
TAP	36	0	0
TAP	36	24	1
TAP	36	48	2
TAP	36	72	3
TAP	36	96	7
TAP	36	120	6
TAP	36	144	5
TAP	36	168	4
TAP	36	192	0
TAP	36	216	1
TAP	36	240	2
TAP	36	264	3
TAP	36	288	7
TAP	36	312	6
TAP	36	336	5
TAP	36	360	4
TAP	37	0	0
TAP	37	24	7
TAP	37	48	0
TAP	37	72	7
TAP	37	96	1
TAP	37	120	6
TAP	37	144	1
TAP	37	168	6
TAP	37	192	2
TAP	37	216	5
TAP	37	240	2
TAP	37	264	5
TAP	37	288	3
TAP	37	312	4
TAP	37	336	3
TAP	37	360	4
BRK	38	0	3
TAP	38	96	3
TAP	38	96	4
HLD	38	192	3	192
TAP	38	192	4
TAP	38	288	5
HLD	39	0	5	192
TAP	39	96	0
HLD	39	192	0	192
TAP	39	288	6
HLD	40	0	6	192
TAP	40	96	2
HLD	40	192	2	192
TAP	40	288	7
STR	41	0	7
SUL	41	0	7	96	192	4
TAP	41	96	0
TAP	41	192	1
TAP	41	288	2
TAP	42	0	3
TAP	42	48	3
TAP	42	96	3
TAP	42	144	3
TAP	42	192	4
TAP	42	240	4
TAP	42	288	4
TAP	42	336	4
TAP	43	0	3
TAP	43	24	4
TAP	43	48	3
TAP	43	72	4
TAP	43	96	3
TAP	43	120	4
TAP	43	144	3
TAP	43	192	2
TAP	43	192	4
TAP	43	264	3
TAP	43	264	6
STR	43	336	0
SI_	43	336	0	96	12	4
TAP	43	336	4
STR	44	48	7
SI_	44	48	7	96	12	3
STR	44	120	1
SI_	44	120	1	96	12	4
STR	44	192	6
SI_	44	192	6	96	12	3
STR	44	264	2
SI_	44	264	2	96	12	5
STR	44	336	7
SI_	44	336	7	96	12	3
STR	45	48	0
SI_	45	48	0	96	12	4
STR	45	120	6
SI_	45	120	6	96	12	3
STR	45	192	1
SI_	45	192	1	96	12	4
STR	45	264	5
SI_	45	264	5	96	12	2
STR	45	336	3
SI_	45	336	3	96	12	7
STR	46	48	4
SI_	46	48	4	96	12	0
STR	46	120	2
SI_	46	120	2	96	12	7
STR	46	192	5
SI_	46	192	5	96	12	0
STR	46	264	1
SI_	46	264	1	96	12	6
STR	46	336	4
SI_	46	336	4	96	12	0
STR	47	48	3
SI_	47	48	3	96	12	7
STR	47	120	5
SI_	47	120	5	96	12	0
STR	47	192	2
SI_	47	192	2	96	12	7
STR	47	264	6
SI_	47	264	6	96	12	1
TAP	47	336	0
BRK	48	96	1
BRK	48	96	6
TAP	50	0	0
TAP	50	24	1
TAP	50	48	2
TAP	50	72	3
TAP	50	96	4
TAP	50	120	5
TAP	50	144	6
TAP	50	168	7
TAP	50	192	0
TAP	50	192	4
TAP	50	216	3
TAP	50	240	2
TAP	50	264	1
TAP	50	288	0
TAP	50	312	7
TAP	50	336	6
TAP	50	360	5
TAP	51	0	0
TAP	51	0	4
TAP	51	24	1
TAP	51	48	2
TAP	51	72	3
TAP	51	96	4
TAP	51	96	7
TAP	51	120	6
TAP	51	144	5
TAP	51	168	4
TAP	51	192	0
TAP	51	192	3
TAP	51	216	1
TAP	51	240	2
TAP	51	264	3
TAP	51	288	4
TAP	51	288	7
TAP	51	312	6
TAP	51	336	5
TAP	51	360	4
TAP	52	0	0
TAP	52	0	3
TAP	52	72	2
TAP	52	72	6
TAP	52	144	0
TAP	52	144	4
TAP	52	240	3
TAP	52	264	4
TAP	52	288	3
TAP	52	336	0
TAP	52	336	7
TAP	53	48	4
TAP	53	96	2
TAP	53	96	6
TAP	53	192	5
TAP	53	240	0
TAP	53	264	7
TAP	53	288	0
TAP	53	336	1
TAP	53	336	5
TAP	54	48	2
TAP	54	96	0
TAP	54	96	7
TAP	54	192	1
TAP	54	192	4
TAP	54	240	3
TAP	54	240	6
TAP	54	336	0
TAP	54	336	7
TAP	55	48	3
HLD	55	96	5	96
TAP	55	192	7
BRK	55	240	1
BRK	55	240	6
TAP	56	48	5
TAP	56	48	7
TAP	56	120	2
TAP	56	120	4
TAP	56	192	1
TAP	56	192	7
TAP	56	264	4
TAP	56	264	6
TAP	56	336	1
TAP	56	336	3
TAP	57	24	0
TAP	57	24	2
TAP	57	96	3
TAP	57	96	5
TAP	57	168	0
TAP	57	168	6
TAP	57	240	1
TAP	57	240	3
TAP	57	312	4
TAP	57	312	6
BRK	58	0	7
TAP	58	24	6
TAP	58	48	5
TAP	58	72	4
TAP	58	96	3
BRK	58	144	0
TAP	58	168	1
TAP	58	192	2
TAP	58	216	3
TAP	58	240	4
BRK	58	288	7
TAP	58	312	6
TAP	58	336	5
TAP	58	360	4
TAP	59	0	3
BRK	59	48	0
TAP	59	72	1
TAP	59	96	2
TAP	59	120	3
TAP	59	144	4
BRK	59	192	7
TAP	59	216	6
TAP	59	240	5
TAP	59	264	4
BRK	59	288	0
TAP	59	312	1
TAP	59	336	2
TAP	59	360	3
TAP	60	0	4
TAP	60	0	7
TAP	60	72	1
TAP	60	72	5
TAP	60	144	3
TAP	60	144	7
TAP	60	240	4
TAP	60	264	3
TAP	60	288	4
TAP	60	336	0
TAP	60	336	7
TAP	61	48	3
TAP	61	96	1
TAP	61	96	5
TAP	61	192	2
TAP	61	240	7
TAP	61	264	0
TAP	61	288	7
TAP	61	336	2
TAP	61	336	6
TAP	62	48	5
TAP	62	96	0
TAP	62	96	7
TAP	62	192	3
TAP	62	192	6
TAP	62	240	1
TAP	62	240	4
TAP	62	336	0
TAP	62	336	7
TAP	63	48	4
HLD	63	96	2	96
TAP	63	192	0
BRK	63	240	1
BRK	63	240	6
TAP	64	48	0
TAP	64	48	2
TAP	64	120	3
TAP	64	120	5
TAP	64	192	0
TAP	64	192	6
TAP	64	264	1
TAP	64	264	3
TAP	64	336	4
TAP	64	336	6
TAP	65	24	5
TAP	65	24	7
TAP	65	96	2
TAP	65	96	4
TAP	65	168	1
TAP	65	168	7
TAP	65	240	4
TAP	65	240	6
TAP	65	312	1
TAP	65	312	3
TAP	66	0	0
TAP	66	24	4
TAP	66	48	1
TAP	66	72	5
TAP	66	96	2
TAP	66	120	6
TAP	66	144	3
TAP	66	168	7
TAP	66	192	4
TAP	66	216	0
TAP	66	240	3
TAP	66	264	7
TAP	66	288	2
TAP	66	312	6
TAP	66	336	1
TAP	67	48	0
TAP	67	48	4
TAP	67	144	3
TAP	67	144	7
TAP	67	240	1
TAP	67	240	5
TAP	67	288	2
TAP	67	288	6
TAP	68	0	0
TAP	68	0	7
TAP	68	24	1
TAP	68	48	2
TAP	68	72	3
TAP	68	96	4
TAP	68	120	5
TAP	68	144	6
TAP	68	168	7
TAP	68	192	0
TAP	68	192	4
TAP	68	216	1
TAP	68	216	5
TAP	68	240	2
TAP	68	240	6
TAP	68	264	3
TAP	68	264	7
TAP	68	288	0
TAP	68	288	4
TAP	68	312	1
TAP	68	312	5
STR	68	336	2
SUR	68	336	2	96	624	4
STR	68	336	6
SUR	68	336	6	96	624	0
TAP	71	0	3
TAP	71	48	5
TAP	71	96	5
TAP	71	144	1
TAP	71	192	1
TAP	71	240	7
TAP	71	288	7
TAP	71	336	0
TAP	71	360	7
TAP	72	0	0
TAP	72	24	7
TAP	72	48	0
TAP	72	72	7
TAP	72	96	0
TAP	72	120	7
TAP	72	144	0
TAP	72	168	7
STR	72	192	0
SI_	72	192	0	96	48	4
BRK	72	288	0
BRK	72	288	7
TAP	73	0	5
TAP	73	96	5
TAP	73	192	5
TAP	73	240	3
TAP	73	288	5
TAP	73	336	3
TAP	74	0	2
TAP	74	96	2
TAP	74	192	2
TAP	74	240	4
TAP	74	288	2
TAP	74	336	4
HLD	75	0	2	144
TAP	75	72	1
TAP	75	144	7
HLD	75	192	5	144
TAP	75	264	6
TAP	75	336	0
TAP	76	0	3
TAP	76	0	7
TAP	76	96	0
TAP	76	96	5
TAP	76	192	2
TAP	76	192	6
TAP	76	288	1
TAP	76	288	4
TAP	77	0	7
TAP	77	96	7
TAP	77	192	7
TAP	77	240	1
TAP	77	288	7
TAP	77	336	1
TAP	78	0	0
TAP	78	96	0
TAP	78	192	0
TAP	78	240	6
TAP	78	288	0
TAP	78	336	6
STR	79	0	0
SI_	79	0	0	96	48	4
TAP	79	96	7
STR	79	192	7
SI_	79	192	7	96	48	3
STR	79	288	1
SI_	79	288	1	96	48	4
TAP	80	0	1
STR	80	0	6
SI_	80	0	6	96	48	3
STR	80	96	0
SI_	80	96	0	96	48	5
TAP	80	96	6
TAP	80	192	0
STR	80	192	7
SI_	80	192	7	96	48	2
BRK	80	288	0
BRK	80	288	7
TAP	81	0	3
TAP	81	48	4
TAP	81	96	3
TAP	81	144	4
TAP	81	192	3
TAP	81	240	4
TAP	81	288	3
TAP	81	336	4
TAP	82	0	2
TAP	82	48	5
TAP	82	96	2
TAP	82	144	5
TAP	82	192	2
TAP	82	240	5
TAP	82	288	2
TAP	82	336	5
TAP	82	360	2
TAP	83	0	6
TAP	83	48	1
TAP	83	96	6
TAP	83	144	1
TAP	83	192	6
TAP	83	240	1
TAP	83	288	6
TAP	83	336	1
TAP	84	0	0
TAP	84	0	7
TAP	84	72	0
TAP	84	72	2
TAP	84	144	5
TAP	84	144	7
TAP	84	216	3
TAP	84	216	4
TAP	84	288	1
TAP	84	288	6
TAP	84	336	3
TAP	84	360	4
TAP	85	0	3
TAP	85	48	3
TAP	85	96	3
TAP	85	144	3
TAP	85	192	3
TAP	85	240	3
TAP	85	288	3
TAP	85	336	3
TAP	85	360	4
TAP	86	0	5
TAP	86	48	5
TAP	86	96	5
TAP	86	144	5
TAP	86	192	5
TAP	86	240	5
TAP	86	288	5
TAP	86	336	5
TAP	86	360	6
TAP	87	0	7
TAP	87	48	7
TAP	87	96	7
TAP	87	144	7
TAP	87	168	0
TAP	87	192	1
TAP	87	240	1
TAP	87	288	1
TAP	87	336	1
TAP	87	360	2
TAP	88	0	3
TAP	88	0	5
TAP	88	72	2
TAP	88	72	4
TAP	88	144	3
TAP	88	144	6
TAP	88	216	1
TAP	88	216	4
TAP	88	288	3
TAP	88	288	7
TAP	88	336	4
TAP	88	360	1
STR	89	0	7
SSR	89	0	7	96	192	3
TAP	90	0	1
TAP	90	24	4
TAP	90	48	3
TAP	90	72	4
TAP	90	96	1
TAP	90	120	4
TAP	90	144	3
TAP	90	168	4
TAP	90	192	1
TAP	90	216	4
TAP	90	240	3
BRK	90	288	2
BRK	90	288	5
HLD	91	0	0	72
TAP	91	0	7
TAP	91	72	1
TAP	91	144	2
TAP	91	144	5
TAP	91	240	3
TAP	91	264	4
TAP	91	288	3
STR	91	336	2
SI_	91	336	2	96	48	6
TAP	91	336	5
TAP	92	48	0
TAP	92	48	2
TAP	92	96	1
TAP	92	192	0
TAP	92	240	6
TAP	92	264	7
TAP	92	288	6
STR	92	336	0
SI_	92	336	0	96	48	4
TAP	92	336	5
TAP	93	48	0
TAP	93	48	2
TAP	93	96	1
TAP	93	192	3
TAP	93	240	5
TAP	93	288	7
TAP	93	336	0
TAP	93	336	6
TAP	94	48	0
TAP	94	48	1
TAP	94	96	2
TAP	94	96	7
STR	94	144	0
SI_	94	144	0	96	48	3
STR	94	144	1
SI_	94	144	1	96	48	5
BRK	94	240	0
BRK	94	240	1
TAP	95	48	0
TAP	95	48	2
TAP	95	120	2
TAP	95	120	4
TAP	95	192	4
TAP	95	192	6
TAP	95	264	0
TAP	95	264	6
TAP	95	336	0
TAP	95	336	2
TAP	96	24	2
TAP	96	24	7
TAP	96	96	0
TAP	96	96	5
TAP	96	168	3
TAP	96	168	6
TAP	96	240	1
TAP	96	240	4
TAP	96	312	2
TAP	96	312	7
HLD	97	0	0	96
TAP	97	0	6
TAP	97	24	5
TAP	97	48	4
TAP	97	72	3
TAP	97	96	2
TAP	97	144	1
HLD	97	144	7	96
TAP	97	168	2
TAP	97	192	3
TAP	97	216	4
TAP	97	240	5
HLD	97	288	0	96
TAP	97	288	6
TAP	97	312	5
TAP	97	336	4
TAP	97	360	3
TAP	98	0	2
TAP	98	48	1
HLD	98	48	7	96
TAP	98	72	2
TAP	98	96	3
TAP	98	120	4
TAP	98	144	5
HLD	98	192	0	96
TAP	98	192	6
TAP	98	216	5
TAP	98	240	4
TAP	98	264	3
BRK	98	288	2
TAP	99	0	0
HLD	99	0	7	72
TAP	99	72	6
TAP	99	144	2
TAP	99	144	5
TAP	99	240	4
TAP	99	264	3
TAP	99	288	4
TAP	99	336	2
STR	99	336	5
SI_	99	336	5	96	48	1
TAP	100	48	5
TAP	100	48	7
TAP	100	96	6
TAP	100	192	7
TAP	100	240	1
TAP	100	264	0
TAP	100	288	1
TAP	100	336	2
STR	100	336	7
SI_	100	336	7	96	48	3
TAP	101	48	5
TAP	101	48	7
TAP	101	96	6
TAP	101	192	4
TAP	101	240	2
TAP	101	288	0
TAP	101	336	1
TAP	101	336	7
TAP	102	48	6
TAP	102	48	7
TAP	102	96	0
TAP	102	96	5
STR	102	144	6
SI_	102	144	6	96	48	2
STR	102	144	7
SI_	102	144	7	96	48	4
BRK	102	240	6
BRK	102	240	7
TAP	103	48	5
TAP	103	48	7
TAP	103	120	3
TAP	103	120	5
TAP	103	192	1
TAP	103	192	3
TAP	103	264	1
TAP	103	264	7
TAP	103	336	5
TAP	103	336	7
TAP	104	24	0
TAP	104	24	5
TAP	104	96	2
TAP	104	96	7
TAP	104	168	1
TAP	104	168	4
TAP	104	240	3
TAP	104	240	6
TAP	104	312	0
TAP	104	312	5
TAP	105	0	3
TAP	105	24	4
TAP	105	48	3
TAP	105	72	4
TAP	105	96	3
TAP	105	120	4
TAP	105	144	3
TAP	105	168	4
TAP	105	192	3
TAP	105	216	4
TAP	105	240	3
TAP	105	264	4
TAP	105	288	3
TAP	105	336	2
TAP	105	336	4
TAP	106	48	3
TAP	106	48	6
TAP	106	144	1
TAP	106	144	5
TAP	106	240	0
TAP	106	240	7
TAP	106	288	1
TAP	106	288	6
TAP	107	0	0
TAP	107	0	7
TAP	107	24	6
TAP	107	48	5
TAP	107	72	4
TAP	107	96	3
TAP	107	120	2
TAP	107	144	1
TAP	107	168	0
TAP	107	192	3
TAP	107	192	7
TAP	107	216	2
TAP	107	216	6
TAP	107	240	1
TAP	107	240	5
TAP	107	264	0
TAP	107	264	4
TAP	107	288	3
TAP	107	288	7
TAP	107	312	2
TAP	107	312	6
STR	107	336	1
SUR	107	336	1	96	192	7
STR	107	336	5
SUR	107	336	5	96	192	3
TAP	109	0	1
STR	109	0	7
SI_	109	0	7	96	48	3
TAP	109	96	2
TAP	109	96	7
STR	109	144	0
SI_	109	144	0	96	48	4
TAP	109	240	0
TAP	109	240	5
STR	109	288	6
SI_	109	288	6	96	48	2
STR	109	336	1
SI_	109	336	1	96	48	5
BRK	110	96	7

T_REC_TAP	928
T_REC_BRK	30
T_REC_XTP	0
T_REC_HLD	20
T_REC_XHO	0
T_REC_STR	61
T_REC_BST	0
T_REC_XST	0
T_REC_TTP	0
T_REC_THO	0
T_REC_SLD	61
T_REC_ALL	1100
T_NUM_TAP	989
T_NUM_BRK	30
T_NUM_HLD	20
T_NUM_SLD	61
T_NUM_ALL	1100
T_JUDGE_TAP	1019
T_JUDGE_HLD	60
T_JUDGE_SLD	61
T_JUDGE_ALL	1140
TTM_EACHPAIRS	218
TTM_SCR_TAP	494500
TTM_SCR_BRK	78000
TTM_SCR_HLD	20000
TTM_SCR_SLD	91500
TTM_SCR_ALL	684000
TTM_SCR_S	660600
TTM_SCR_SS	681000
TTM_RAT_ACV	10044

