VERSION	0.00.00	1.03.00
FES_MODE	0
BPM_DEF	205.000	205.000	205.000	205.000
MET_DEF	4	4
RESOLUTION	384
CLK_DEF	384
COMPATIBLE_CODE	MA2

BPM	0	0	205.000
MET	0	0	4	4

TAP	1	192	3
TAP	1	240	3
TAP	1	288	4
TAP	1	336	4
TAP	2	0	0
TAP	2	72	0
TAP	2	144	1
TAP	2	144	7
TAP	2	240	4
TAP	2	288	3
TAP	2	336	4
TAP	3	48	0
TAP	3	96	1
TAP	3	144	2
TAP	3	192	3
TAP	3	240	4
TAP	3	288	5
TAP	4	0	7
TAP	4	72	7
TAP	4	144	0
TAP	4	144	6
TAP	4	240	3
TAP	4	288	4
TAP	4	336	3
TAP	5	48	7
TAP	5	96	6
TAP	5	144	5
TAP	5	192	4
TAP	5	240	3
TAP	5	288	2
TAP	6	0	0
TAP	6	0	7
TAP	6	96	3
TAP	6	96	4
TAP	6	192	2
TAP	6	240	6
TAP	6	288	1
TAP	6	336	5
TAP	7	48	0
TAP	7	96	7
TAP	7	192	1
TAP	7	192	3
TAP	7	288	5
TAP	7	288	7
TAP	8	0	3
TAP	8	96	4
TAP	8	192	1
TAP	8	240	1
TAP	8	288	6
TAP	8	336	6
TAP	9	48	0
TAP	9	96	7
TAP	9	192	1
TAP	9	192	7
STR	9	288	0
SUR	9	288	0	96	624	3
STR	9	288	6
SUL	9	288	6	96	624	3
TAP	12	0	1
TAP	12	0	3
TAP	12	48	2
TAP	12	144	2
TAP	12	240	2
TAP	12	336	2
TAP	13	48	2
TAP	13	96	3
TAP	13	144	2
TAP	13	192	3
TAP	13	240	2
TAP	13	336	5
STR	14	0	5
SCL	14	0	5	96	48	3
STR	14	192	1
SCL	14	192	1	96	48	7
HLD	15	0	4	96
HLD	15	96	3	96
HLD	15	192	4	96
TAP	15	288	3
TAP	16	0	4
TAP	16	0	6
TAP	16	48	5
TAP	16	144	5
TAP	16	240	5
TAP	16	336	5
TAP	17	48	5
TAP	17	96	4
TAP	17	144	5
TAP	17	192	4
TAP	17	240	5
TAP	17	336	2
STR	18	0	2
SCR	18	0	2	96	48	4
STR	18	192	6
SCR	18	192	6	96	48	0
HLD	19	0	3	96
HLD	19	96	4	96
HLD	19	192	3	96
BRK	19	288	4
TAP	20	0	2
TAP	20	0	3
TAP	20	96	4
TAP	20	96	5
TAP	20	192	1
TAP	20	192	3
TAP	20	288	4
TAP	20	288	6
TAP	21	0	0
TAP	21	0	2
TAP	21	96	5
TAP	21	96	7
TAP	21	192	0
TAP	21	192	1
TAP	21	288	6
TAP	21	288	7
TAP	22	0	0
TAP	22	0	2
TAP	22	96	5
TAP	22	96	7
TAP	22	192	1
TAP	22	192	3
TAP	22	288	4
TAP	22	288	6
TAP	23	0	2
TAP	23	0	3
TAP	23	96	4
TAP	23	96	5
TAP	23	192	6
TAP	23	192	7
TAP	23	288	0
TAP	23	288	1
HLD	24	0	1	288
TAP	24	96	3
TAP	24	288	3
HLD	25	0	6	288
TAP	25	96	4
TAP	25	288	4
HLD	26	0	0	288
TAP	26	96	4
TAP	26	192	4
TAP	26	288	4
TAP	27	0	4
TAP	27	48	0
TAP	27	96	5
TAP	27	144	1
TAP	27	192	6
TAP	27	240	2
TAP	27	288	7
TAP	27	336	3
STR	28	0	0
SCL	28	0	0	96	192	4
TAP	29	0	2
TAP	29	0	3
TAP	29	48	2
TAP	29	48	3
TAP	29	96	4
TAP	29	96	5
TAP	29	144	4
TAP	29	144	5
TAP	29	192	0
TAP	29	192	1
TAP	29	240	0
TAP	29	240	1
BRK	29	288	6
BRK	29	288	7
TAP	30	0	2
TAP	30	48	3
TAP	30	96	2
TAP	30	144	5
TAP	30	192	4
TAP	30	240	5
TAP	30	288	4
TAP	30	336	7
TAP	31	0	0
TAP	31	48	4
TAP	31	96	2
TAP	31	144	6
TAP	31	192	3
TAP	31	240	7
TAP	31	288	1
TAP	32	0	6
TAP	32	48	7
TAP	32	96	6
TAP	32	144	1
TAP	32	192	0
TAP	32	240	1
TAP	32	288	0
TAP	32	336	3
TAP	33	0	7
TAP	33	48	3
TAP	33	96	6
TAP	33	144	2
TAP	33	192	5
TAP	33	240	1
TAP	33	288	4
TAP	34	0	0
TAP	34	48	1
TAP	34	96	2
TAP	34	144	7
TAP	34	192	6
TAP	34	240	5
TAP	34	288	2
TAP	34	336	1
TAP	35	0	0
TAP	35	48	5
TAP	35	96	6
TAP	35	144	7
TAP	35	192	0
TAP	35	240	1
TAP	35	288	2
TAP	36	0	5
TAP	36	48	4
TAP	36	96	6
TAP	36	144	3
TAP	36	192	7
TAP	36	240	0
TAP	36	288	2
TAP	36	288	5
TAP	37	0	5
TAP	37	24	4
TAP	37	96	2
TAP	37	120	3
TAP	37	192	5
TAP	37	216	4
TAP	37	288	2
TAP	37	312	3
TAP	38	0	1
TAP	38	0	3
TAP	38	96	2
TAP	38	192	2
TAP	38	288	2
TAP	39	0	2
TAP	39	96	2
TAP	39	96	3
TAP	39	192	2
TAP	39	192	4
TAP	39	288	2
TAP	39	288	5
TAP	40	0	4
TAP	40	0	6
TAP	40	96	5
TAP	40	192	5
TAP	40	288	5
TAP	41	0	5
TAP	41	96	4
TAP	41	96	5
TAP	41	192	3
TAP	41	192	5
TAP	41	288	2
TAP	41	288	5
STR	42	0	1
SI_	42	0	1	96	48	5
TAP	42	0	6
TAP	42	192	1
STR	42	192	6
SI_	42	192	6	96	48	2
STR	43	0	0
SI_	43	0	0	96	48	4
TAP	43	0	7
TAP	43	192	0
STR	43	192	7
SI_	43	192	7	96	48	3
TAP	44	0	1
TAP	44	48	0
TAP	44	48	1
TAP	44	120	0
TAP	44	120	1
TAP	44	192	0
TAP	44	192	1
TAP	44	264	0
TAP	44	264	1
TAP	44	336	0
TAP	44	336	1
TAP	45	0	6
TAP	45	48	6
TAP	45	48	7
TAP	45	120	6
TAP	45	120	7
TAP	45	192	6
TAP	45	192	7
TAP	45	264	6
TAP	45	264	7
TAP	45	336	6
TAP	45	336	7
TAP	46	0	2
TAP	46	48	2
TAP	46	48	3
TAP	46	120	2
TAP	46	120	3
TAP	46	192	2
TAP	46	192	3
TAP	46	264	2
TAP	46	264	3
TAP	46	336	2
TAP	46	336	3
TAP	47	0	5
TAP	47	48	4
TAP	47	48	5
TAP	47	120	4
TAP	47	120	5
TAP	47	192	4
TAP	47	192	5
TAP	47	264	4
TAP	47	264	5
TAP	47	336	4
TAP	47	336	5
STR	48	96	1
SUR	48	96	1	96	384	4
STR	48	96	7
SUL	48	96	7	96	384	4
TAP	50	0	1
TAP	50	48	0
TAP	50	96	2
TAP	50	144	7
TAP	50	192	3
TAP	50	240	6
TAP	50	288	4
TAP	50	336	5
TAP	51	0	2
TAP	51	0	3
TAP	51	48	2
TAP	51	48	3
TAP	51	96	4
TAP	51	96	5
TAP	51	144	4
TAP	51	144	5
TAP	51	192	1
TAP	51	192	6
TAP	51	240	1
TAP	51	240	6
BRK	51	288	0
BRK	51	288	7
TAP	52	0	6
TAP	52	0	7
TAP	52	72	0
TAP	52	72	7
TAP	52	144	0
TAP	52	144	1
TAP	52	240	0
TAP	52	240	7
TAP	52	288	2
TAP	52	288	5
TAP	52	336	1
TAP	52	336	6
TAP	53	48	3
TAP	53	96	5
TAP	53	144	1
TAP	53	192	7
TAP	53	240	0
TAP	53	288	6
STR	54	0	4
SI_	54	0	4	96	48	7
TAP	54	96	0
STR	54	192	0
SI_	54	192	0	96	48	3
TAP	54	288	6
STR	55	0	6
SI_	55	0	6	96	48	1
TAP	55	96	2
BRK	55	192	3
BRK	55	240	3
TAP	56	0	5
TAP	56	0	6
TAP	56	72	4
TAP	56	72	5
TAP	56	144	3
TAP	56	144	4
TAP	56	240	0
TAP	56	288	7
TAP	56	336	0
TAP	57	0	1
TAP	57	0	2
TAP	57	72	2
TAP	57	72	3
TAP	57	144	3
TAP	57	144	4
TAP	57	240	7
TAP	57	288	0
TAP	57	336	7
TAP	58	0	0
TAP	58	48	4
TAP	58	96	2
TAP	58	144	6
TAP	58	192	0
TAP	58	240	7
TAP	58	288	3
TAP	58	336	5
TAP	59	0	1
TAP	59	48	7
TAP	59	96	0
TAP	59	144	4
STR	59	192	3
SI_	59	192	3	96	48	7
TAP	60	0	0
TAP	60	0	1
TAP	60	72	0
TAP	60	72	7
TAP	60	144	6
TAP	60	144	7
TAP	60	240	3
TAP	60	240	4
TAP	60	288	1
TAP	60	288	6
TAP	60	336	2
TAP	60	336	5
TAP	61	48	4
TAP	61	96	2
TAP	61	144	6
TAP	61	192	0
TAP	61	240	7
TAP	61	288	1
STR	62	0	3
SI_	62	0	3	96	48	0
TAP	62	96	7
STR	62	192	7
SI_	62	192	7	96	48	4
TAP	62	288	1
STR	63	0	1
SI_	63	0	1	96	48	6
TAP	63	96	5
BRK	63	192	4
BRK	63	240	4
TAP	64	0	0
TAP	64	0	1
TAP	64	72	0
TAP	64	72	7
TAP	64	144	6
TAP	64	144	7
TAP	64	240	3
TAP	64	288	4
TAP	64	336	3
TAP	65	0	6
TAP	65	0	7
TAP	65	72	0
TAP	65	72	7
TAP	65	144	0
TAP	65	144	1
TAP	65	240	4
TAP	65	288	3
TAP	65	336	4
TAP	66	0	3
TAP	66	48	7
TAP	66	96	1
TAP	66	144	5
TAP	66	192	3
TAP	66	240	4
TAP	66	288	0
HLD	66	336	6	96
TAP	67	48	2
TAP	67	144	2
TAP	67	240	2
TAP	67	288	2
TAP	67	288	3
TAP	68	0	1
TAP	68	48	0
TAP	68	96	2
TAP	68	144	7
TAP	68	192	3
TAP	68	240	6
TAP	68	288	4
STR	68	336	4
SCL	68	336	4	96	624	5
STR	68	336	5
SCR	68	336	5	96	624	4
TAP	71	0	7
TAP	71	48	7
TAP	71	96	7
TAP	71	144	5
TAP	71	192	5
TAP	71	240	5
TAP	71	288	3
TAP	71	336	3
TAP	72	0	3
TAP	72	48	1
TAP	72	96	1
TAP	72	144	1
STR	72	192	7
SI_	72	192	7	96	48	3
BRK	72	288	0
TAP	73	0	2
TAP	73	48	2
TAP	73	144	3
TAP	73	240	4
TAP	73	336	5
TAP	74	48	1
TAP	74	96	0
TAP	74	144	4
TAP	74	192	5
HLD	74	240	2	96
TAP	74	336	3
HLD	75	0	3	192
HLD	75	192	4	192
HLD	76	0	5	96
HLD	76	96	4	96
HLD	76	192	3	96
TAP	76	288	2
TAP	77	0	5
TAP	77	48	5
TAP	77	144	4
TAP	77	240	3
TAP	77	336	2
TAP	78	48	6
TAP	78	96	7
TAP	78	144	3
TAP	78	192	2
HLD	78	240	5	96
TAP	78	336	4
HLD	79	0	4	192
HLD	79	192	3	192
HLD	80	0	2	96
HLD	80	96	3	96
HLD	80	192	4	96
BRK	80	288	5
STR	81	0	1
SI_	81	0	1	96	48	5
TAP	81	96	7
STR	81	192	6
SI_	81	192	6	96	48	2
TAP	81	288	0
STR	82	0	0
SI_	82	0	0	96	48	4
TAP	82	96	6
STR	82	192	7
SI_	82	192	7	96	48	3
TAP	82	288	1
STR	83	0	0
SI_	83	0	0	96	48	2
TAP	83	96	3
STR	83	192	7
SI_	83	192	7	96	48	5
TAP	83	288	4
TAP	84	0	4
TAP	84	96	6
TAP	84	96	7
TAP	84	192	2
TAP	84	192	3
TAP	84	288	0
TAP	84	288	1
STR	85	0	1
SI_	85	0	1	96	48	4
TAP	85	96	5
STR	85	192	5
SI_	85	192	5	96	48	0
TAP	85	288	2
STR	86	0	2
SI_	86	0	2	96	48	7
TAP	86	96	6
STR	86	192	6
SI_	86	192	6	96	48	3
TAP	86	288	4
STR	87	0	4
SI_	87	0	4	96	48	1
TAP	87	96	0
STR	87	192	0
SI_	87	192	0	96	48	5
TAP	87	288	1
TAP	88	0	1
TAP	88	96	0
TAP	88	96	2
TAP	88	192	3
TAP	88	192	7
STR	88	288	4
SV_	88	288	4	96	240	1
STR	88	288	6
SV_	88	288	6	96	240	1
TAP	90	0	2
TAP	90	0	3
TAP	90	48	2
TAP	90	48	3
TAP	90	96	1
TAP	90	96	4
TAP	90	144	1
TAP	90	144	4
TAP	90	192	0
TAP	90	192	5
TAP	90	240	0
TAP	90	240	5
BRK	90	288	6
BRK	90	288	7
TAP	91	0	6
TAP	91	0	7
TAP	91	72	0
TAP	91	72	5
TAP	91	144	1
TAP	91	144	4
TAP	91	240	0
TAP	91	240	7
TAP	91	288	1
TAP	91	288	6
TAP	91	336	2
TAP	91	336	5
TAP	92	48	3
TAP	92	96	5
TAP	92	144	1
TAP	92	192	7
TAP	92	240	0
TAP	92	288	2
TAP	92	288	6
STR	93	0	5
SI_	93	0	5	96	48	0
TAP	93	96	1
STR	93	192	1
SI_	93	192	1	96	48	4
TAP	93	288	6
STR	94	0	6
SI_	94	0	6	96	48	3
TAP	94	96	2
STR	94	192	2
SI_	94	192	2	96	48	7
BRK	94	192	5
BRK	94	240	5
TAP	95	0	0
TAP	95	0	1
TAP	95	72	2
TAP	95	72	7
TAP	95	144	3
TAP	95	144	6
TAP	95	240	5
TAP	95	288	4
TAP	95	336	5
TAP	96	0	6
TAP	96	0	7
TAP	96	72	0
TAP	96	72	5
TAP	96	144	1
TAP	96	144	4
TAP	96	240	2
TAP	96	288	3
TAP	96	336	2
TAP	97	0	4
TAP	97	48	0
TAP	97	96	6
TAP	97	144	2
TAP	97	192	7
TAP	97	240	0
TAP	97	288	4
TAP	97	336	3
TAP	98	0	5
TAP	98	48	2
TAP	98	96	6
TAP	98	144	1
STR	98	192	7
SI_	98	192	7	96	48	3
TAP	99	0	0
TAP	99	0	1
TAP	99	72	2
TAP	99	72	7
TAP	99	144	3
TAP	99	144	6
TAP	99	240	2
TAP	99	240	5
TAP	99	288	1
TAP	99	288	6
TAP	99	336	0
TAP	99	336	7
TAP	100	48	4
TAP	100	96	2
TAP	100	144	6
TAP	100	192	0
TAP	100	240	7
TAP	100	288	1
TAP	100	288	5
STR	101	0	2
SI_	101	0	2	96	48	7
TAP	101	96	6
STR	101	192	6
SI_	101	192	6	96	48	3
TAP	101	288	1
STR	102	0	1
SI_	102	0	1	96	48	4
TAP	102	96	5
BRK	102	192	2
STR	102	192	5
SI_	102	192	5	96	48	0
BRK	102	240	2
TAP	103	0	2
TAP	103	0	3
TAP	103	72	1
TAP	103	72	4
TAP	103	144	0
TAP	103	144	5
TAP	103	240	6
TAP	103	288	7
TAP	103	336	6
TAP	104	0	4
TAP	104	0	5
TAP	104	72	3
TAP	104	72	6
TAP	104	144	2
TAP	104	144	7
TAP	104	240	1
TAP	104	288	0
TAP	104	336	1
TAP	105	0	7
TAP	105	48	3
TAP	105	96	5
TAP	105	144	1
TAP	105	192	4
TAP	105	240	3
TAP	105	288	7
HLD	105	336	1	96
TAP	106	48	5
TAP	106	144	5
TAP	106	240	5
TAP	106	288	4
TAP	106	288	5
TAP	107	0	0
TAP	107	48	7
TAP	107	96	1
TAP	107	144	6
TAP	107	192	2
TAP	107	240	5
TAP	107	288	3
STR	107	336	4
SCR	107	336	4	96	240	3
TAP	109	0	0
TAP	109	0	7
TAP	109	96	2
TAP	109	96	3
TAP	109	144	1
TAP	109	144	4
TAP	109	240	4
TAP	109	240	5
TAP	109	288	3
TAP	109	288	6
STR	109	336	0
SI_	109	336	0	96	72	4
BRK	109	336	7

T_REC_TAP	590
T_REC_BRK	18
T_REC_XTP	0
T_REC_HLD	23
T_REC_XHO	0
T_REC_STR	48
T_REC_BST	0
T_REC_XST	0
T_REC_TTP	0
T_REC_THO	0
T_REC_SLD	48
T_REC_ALL	727
T_NUM_TAP	638
T_NUM_BRK	18
T_NUM_HLD	23
T_NUM_SLD	48
T_NUM_ALL	727
T_JUDGE_TAP	656
T_JUDGE_HLD	66
T_JUDGE_SLD	48
T_JUDGE_ALL	770
TTM_EACHPAIRS	148
TTM_SCR_TAP	319000
TTM_SCR_BRK	46800
TTM_SCR_HLD	23000
TTM_SCR_SLD	72000
TTM_SCR_ALL	460800
TTM_SCR_S	445250
TTM_SCR_SS	459000
TTM_RAT_ACV	10039

