VERSION	0.00.00	1.03.00
FES_MODE	0
BPM_DEF	205.000	205.000	205.000	205.000
MET_DEF	4	4
RESOLUTION	384
CLK_DEF	384
COMPATIBLE_CODE	MA2

BPM	0	0	205.000
MET	0	0	4	4

TAP	2	0	6
TAP	2	96	7
STR	2	192	0
SI_	2	192	0	96	192	5
TAP	4	0	1
TAP	4	96	0
STR	4	192	7
SI_	4	192	7	96	192	3
TAP	6	0	2
TAP	6	96	3
STR	6	192	4
SI_	6	192	4	96	192	0
TAP	8	0	6
TAP	8	96	5
STR	8	192	3
SI_	8	192	3	96	192	0
STR	8	192	4
SI_	8	192	4	96	192	7
BRK	10	0	1
BRK	10	0	6
TAP	12	0	0
TAP	12	96	0
TAP	12	192	1
TAP	12	288	1
TAP	13	0	2
TAP	13	96	2
TAP	13	192	3
TAP	13	288	3
TAP	14	0	4
TAP	14	96	4
TAP	14	192	5
TAP	14	288	5
TAP	15	0	6
TAP	15	96	6
TAP	15	192	7
TAP	15	288	7
TAP	16	0	6
TAP	16	96	5
TAP	16	192	4
TAP	16	288	3
TAP	17	0	2
TAP	17	96	1
TAP	17	192	0
TAP	17	192	7
TAP	17	288	0
TAP	17	288	7
TAP	18	0	6
TAP	18	0	7
TAP	18	96	6
TAP	18	96	7
TAP	18	192	4
TAP	18	192	5
TAP	18	288	4
TAP	18	288	5
TAP	19	0	2
TAP	19	0	3
TAP	19	96	2
TAP	19	96	3
TAP	19	192	0
TAP	19	192	1
TAP	19	288	0
TAP	19	288	1
TAP	20	0	2
TAP	20	96	2
TAP	20	192	2
TAP	20	288	2
TAP	20	288	3
TAP	21	0	5
TAP	21	96	5
TAP	21	192	5
TAP	21	288	4
TAP	21	288	5
TAP	22	0	2
TAP	22	96	2
TAP	22	192	2
TAP	22	288	1
TAP	22	288	3
TAP	23	0	5
TAP	23	96	5
TAP	23	192	5
TAP	23	288	4
TAP	23	288	6
TAP	24	0	1
TAP	24	96	1
TAP	24	192	0
TAP	24	192	2
TAP	24	288	0
TAP	24	288	2
TAP	25	0	6
TAP	25	96	6
TAP	25	192	5
TAP	25	192	7
TAP	25	288	5
TAP	25	288	7
TAP	26	0	1
TAP	26	96	0
TAP	26	96	1
TAP	26	192	1
TAP	26	288	0
TAP	26	288	1
TAP	27	0	6
TAP	27	96	6
TAP	27	96	7
TAP	27	192	6
TAP	27	288	6
TAP	27	288	7
STR	28	0	0
SCR	28	0	0	96	480	7
TAP	30	0	0
TAP	30	96	1
TAP	30	192	2
TAP	30	288	3
TAP	30	288	4
TAP	31	0	5
TAP	31	96	6
TAP	31	192	7
TAP	31	288	0
TAP	31	288	1
TAP	32	0	2
TAP	32	96	3
TAP	32	96	4
TAP	32	192	5
TAP	32	288	6
TAP	32	288	7
TAP	33	0	0
TAP	33	0	1
TAP	33	96	2
TAP	33	96	7
TAP	33	192	3
TAP	33	192	6
TAP	33	288	4
TAP	33	288	5
TAP	34	0	7
TAP	34	96	6
TAP	34	192	5
TAP	34	288	3
TAP	34	288	4
TAP	35	0	2
TAP	35	96	1
TAP	35	192	0
TAP	35	288	6
TAP	35	288	7
TAP	36	0	5
TAP	36	96	3
TAP	36	96	4
TAP	36	192	2
TAP	36	288	0
TAP	36	288	1
TAP	37	0	6
TAP	37	0	7
TAP	37	96	0
TAP	37	96	5
TAP	37	192	1
TAP	37	192	4
TAP	37	288	2
TAP	37	288	3
HLD	38	0	5	192
TAP	38	192	4
HLD	39	0	2	192
TAP	39	192	3
HLD	40	0	6	192
TAP	40	192	5
HLD	41	0	1	192
TAP	41	192	2
HLD	42	0	7	192
TAP	42	192	6
HLD	43	0	0	192
TAP	43	192	1
STR	44	0	6
SCL	44	0	6	96	192	3
STR	45	48	1
SCR	45	48	1	96	192	4
STR	46	48	5
SCR	46	48	5	96	192	0
STR	47	48	2
SCL	47	48	2	96	192	7
BRK	48	96	0
BRK	48	96	7
STR	50	0	0
SUR	50	0	0	96	480	3
TAP	52	0	6
TAP	52	96	5
TAP	52	192	4
TAP	52	288	2
TAP	52	288	3
TAP	53	0	1
TAP	53	96	2
TAP	53	192	3
TAP	53	288	4
TAP	53	288	5
TAP	54	0	7
TAP	54	96	6
TAP	54	192	5
TAP	54	288	3
TAP	54	288	4
TAP	55	0	0
TAP	55	96	1
TAP	55	192	2
TAP	55	288	3
TAP	55	288	4
STR	56	0	5
SUL	56	0	5	96	192	7
STR	57	0	2
SUR	57	0	2	96	192	0
TAP	58	0	7
TAP	58	96	6
TAP	58	192	5
TAP	58	288	4
TAP	59	0	3
TAP	59	96	2
TAP	59	192	1
TAP	59	288	0
TAP	60	0	3
TAP	60	96	4
TAP	60	192	5
TAP	60	288	6
TAP	60	288	7
TAP	61	0	4
TAP	61	96	3
TAP	61	192	2
TAP	61	288	0
TAP	61	288	1
TAP	62	0	4
TAP	62	96	5
TAP	62	192	6
TAP	62	288	0
TAP	62	288	7
TAP	63	0	3
TAP	63	96	2
TAP	63	192	1
TAP	63	288	0
TAP	63	288	7
STR	64	0	1
SUL	64	0	1	96	192	3
STR	65	0	6
SUR	65	0	6	96	192	4
TAP	66	0	0
TAP	66	96	1
TAP	66	192	2
TAP	66	288	3
TAP	67	0	4
TAP	67	96	5
TAP	67	192	6
TAP	67	288	7
BRK	68	0	1
BRK	68	0	6
STR	68	336	7
SCL	68	336	7	96	720	0
HLD	73	0	5	288
TAP	73	96	4
TAP	73	192	4
TAP	73	288	4
HLD	74	0	2	288
TAP	74	96	3
TAP	74	192	3
TAP	74	288	3
HLD	75	0	6	288
TAP	75	96	5
TAP	75	192	5
TAP	75	288	5
HLD	76	0	1	288
TAP	76	96	2
TAP	76	192	2
TAP	76	288	2
HLD	77	0	6	288
TAP	77	96	7
TAP	77	192	7
TAP	77	288	7
HLD	78	0	1	288
TAP	78	96	0
TAP	78	192	0
TAP	78	288	0
HLD	79	0	6	96
TAP	79	96	7
HLD	79	192	1	96
TAP	79	288	0
TAP	80	0	0
TAP	80	0	7
TAP	80	96	1
TAP	80	96	6
TAP	80	192	2
TAP	80	192	5
TAP	80	288	3
TAP	80	288	4
HLD	81	0	5	288
TAP	81	96	4
TAP	81	192	4
TAP	81	288	3
HLD	82	0	2	288
TAP	82	96	3
TAP	82	192	3
TAP	82	288	4
HLD	83	0	6	288
TAP	83	96	7
TAP	83	192	7
TAP	83	288	0
HLD	84	0	1	288
TAP	84	96	0
TAP	84	192	0
TAP	84	288	7
HLD	85	0	6	288
TAP	85	96	5
TAP	85	192	4
TAP	85	288	3
HLD	86	0	1	288
TAP	86	96	2
TAP	86	192	3
TAP	86	288	4
HLD	87	0	5	288
TAP	87	96	6
TAP	87	192	7
TAP	87	288	0
HLD	88	0	2	288
TAP	88	96	1
TAP	88	192	0
TAP	88	288	7
BRK	89	0	1
BRK	89	0	6
TAP	91	0	0
TAP	91	96	0
TAP	91	192	2
TAP	91	288	2
TAP	92	0	4
TAP	92	96	4
TAP	92	192	6
TAP	92	288	6
TAP	93	0	1
TAP	93	96	0
TAP	93	96	2
TAP	93	192	3
TAP	93	288	2
TAP	93	288	4
TAP	94	0	5
TAP	94	96	4
TAP	94	96	6
TAP	94	192	7
TAP	94	288	0
TAP	94	288	6
STR	95	0	7
SSR	95	0	7	96	192	3
STR	96	0	0
SSL	96	0	0	96	192	4
TAP	97	0	7
TAP	97	96	5
TAP	97	192	3
TAP	97	288	1
TAP	98	0	6
TAP	98	96	4
TAP	98	192	2
TAP	98	288	0
TAP	99	0	7
TAP	99	96	7
TAP	99	192	5
TAP	99	288	5
TAP	100	0	3
TAP	100	96	3
TAP	100	192	1
TAP	100	288	1
TAP	101	0	6
TAP	101	96	5
TAP	101	96	7
TAP	101	192	4
TAP	101	288	3
TAP	101	288	5
TAP	102	0	2
TAP	102	96	1
TAP	102	96	3
TAP	102	192	0
TAP	102	288	1
TAP	102	288	7
STR	103	0	0
SSL	103	0	0	96	192	4
STR	104	0	7
SSR	104	0	7	96	192	3
TAP	105	0	0
TAP	105	96	2
TAP	105	192	4
TAP	105	288	6
TAP	106	0	1
TAP	106	96	3
TAP	106	192	5
TAP	106	288	7
TAP	107	0	0
TAP	107	0	7
TAP	107	96	1
TAP	107	96	6
TAP	107	192	2
TAP	107	192	5
STR	107	288	3
SCL	107	288	3	96	192	0
STR	107	288	4
SCR	107	288	4	96	192	7
TAP	109	0	0
TAP	109	0	1
TAP	109	144	6
TAP	109	144	7
TAP	109	288	0
TAP	109	288	7
TAP	109	336	0
TAP	109	336	7
BRK	110	96	1
BRK	110	96	6

T_REC_TAP	326
T_REC_BRK	10
T_REC_XTP	0
T_REC_HLD	22
T_REC_XHO	0
T_REC_STR	22
T_REC_BST	0
T_REC_XST	0
T_REC_TTP	0
T_REC_THO	0
T_REC_SLD	22
T_REC_ALL	402
T_NUM_TAP	348
T_NUM_BRK	10
T_NUM_HLD	22
T_NUM_SLD	22
T_NUM_ALL	402
T_JUDGE_TAP	358
T_JUDGE_HLD	112
T_JUDGE_SLD	22
T_JUDGE_ALL	492
TTM_EACHPAIRS	72
TTM_SCR_TAP	174000
TTM_SCR_BRK	26000
TTM_SCR_HLD	22000
TTM_SCR_SLD	33000
TTM_SCR_ALL	255000
TTM_SCR_S	246400
TTM_SCR_SS	254000
TTM_RAT_ACV	10039

