VERSION	0.00.00	1.03.00
FES_MODE	0
BPM_DEF	205.000	205.000	205.000	205.000
MET_DEF	4	4
RESOLUTION	384
CLK_DEF	384
COMPATIBLE_CODE	MA2

BPM	0	0	205.000
MET	0	0	4	4

TAP	2	0	0
TAP	2	192	0
TAP	3	0	1
TAP	3	192	1
TAP	4	0	2
TAP	4	192	2
TAP	5	0	3
TAP	5	192	3
TAP	6	0	4
TAP	6	192	4
TAP	7	0	5
TAP	7	192	5
TAP	8	0	6
TAP	8	192	6
TAP	9	0	7
TAP	9	192	7
BRK	10	0	0
BRK	10	0	7
TAP	12	0	0
TAP	12	0	7
TAP	12	192	0
TAP	12	192	7
TAP	13	0	1
TAP	13	96	1
TAP	13	192	1
TAP	14	0	2
TAP	14	192	2
TAP	15	0	3
TAP	15	96	3
TAP	15	192	3
TAP	16	0	4
TAP	16	192	4
TAP	17	0	5
TAP	17	96	5
TAP	17	192	5
TAP	18	0	6
TAP	18	192	6
TAP	19	0	7
TAP	19	96	7
TAP	19	192	7
TAP	20	0	0
TAP	20	0	7
TAP	20	192	0
TAP	20	192	7
TAP	21	0	6
TAP	21	96	6
TAP	21	192	6
TAP	22	0	5
TAP	22	192	5
TAP	23	0	4
TAP	23	96	4
TAP	23	192	4
TAP	24	0	3
TAP	24	192	3
TAP	25	0	2
TAP	25	96	2
TAP	25	192	2
TAP	26	0	1
TAP	26	192	1
TAP	27	0	0
TAP	27	96	0
TAP	27	192	0
BRK	28	0	0
BRK	28	0	7
TAP	30	0	0
TAP	30	96	0
TAP	30	192	1
TAP	30	288	1
TAP	31	0	0
TAP	31	0	1
TAP	31	192	0
TAP	31	192	1
TAP	32	0	2
TAP	32	96	2
TAP	32	192	3
TAP	32	288	3
TAP	33	0	2
TAP	33	0	3
TAP	33	192	2
TAP	33	192	3
TAP	34	0	4
TAP	34	96	4
TAP	34	192	5
TAP	34	288	5
TAP	35	0	4
TAP	35	0	5
TAP	35	192	4
TAP	35	192	5
TAP	36	0	6
TAP	36	96	6
TAP	36	192	7
TAP	36	288	7
TAP	37	0	6
TAP	37	0	7
TAP	37	192	6
TAP	37	192	7
STR	38	0	0
SI_	38	0	0	96	288	3
STR	40	0	4
SI_	40	0	4	96	288	7
STR	42	0	3
SI_	42	0	3	96	288	0
HLD	44	0	0	384
HLD	44	0	7	384
HLD	46	0	1	384
HLD	46	0	6	384
BRK	48	96	0
BRK	48	96	7
TAP	50	0	0
TAP	50	96	0
TAP	50	192	7
TAP	50	288	7
TAP	51	0	0
TAP	51	96	7
TAP	51	192	0
TAP	51	288	7
STR	52	0	0
SI_	52	0	0	96	288	4
TAP	54	0	5
TAP	54	96	5
TAP	54	192	4
TAP	55	0	4
TAP	55	96	4
TAP	55	192	3
TAP	56	0	3
TAP	56	96	3
TAP	56	192	2
TAP	57	0	2
TAP	57	96	2
TAP	57	192	1
TAP	58	0	1
TAP	58	96	1
TAP	58	192	0
TAP	59	0	0
TAP	59	0	7
TAP	59	192	0
TAP	59	192	7
STR	60	0	7
SI_	60	0	7	96	288	3
TAP	62	0	2
TAP	62	96	2
TAP	62	192	3
TAP	63	0	3
TAP	63	96	3
TAP	63	192	4
TAP	64	0	4
TAP	64	96	4
TAP	64	192	5
TAP	65	0	5
TAP	65	96	5
TAP	65	192	6
TAP	66	0	6
TAP	66	96	6
TAP	66	192	7
TAP	67	0	0
TAP	67	0	7
TAP	67	192	0
TAP	67	192	7
STR	68	0	0
SI_	68	0	0	96	288	3
STR	68	0	7
SI_	68	0	7	96	288	4
TAP	73	0	7
TAP	73	96	7
TAP	73	192	6
TAP	73	192	7
TAP	74	0	6
TAP	74	96	6
TAP	74	192	6
TAP	74	192	7
TAP	75	0	5
TAP	75	96	5
TAP	75	192	4
TAP	75	192	5
TAP	76	0	4
TAP	76	96	4
TAP	76	192	4
TAP	76	192	5
TAP	77	0	3
TAP	77	96	3
TAP	77	192	2
TAP	77	192	3
TAP	78	0	2
TAP	78	96	2
TAP	78	192	2
TAP	78	192	3
TAP	79	0	1
TAP	79	96	1
TAP	79	192	0
TAP	79	192	1
TAP	80	0	0
TAP	80	0	7
TAP	80	96	0
TAP	80	96	7
TAP	80	192	0
TAP	80	192	7
TAP	81	0	0
TAP	81	96	0
TAP	81	192	0
TAP	81	192	1
TAP	82	0	1
TAP	82	96	1
TAP	82	192	0
TAP	82	192	1
TAP	83	0	2
TAP	83	96	2
TAP	83	192	2
TAP	83	192	3
TAP	84	0	3
TAP	84	96	3
TAP	84	192	2
TAP	84	192	3
TAP	85	0	4
TAP	85	96	4
TAP	85	192	4
TAP	85	192	5
TAP	86	0	5
TAP	86	96	5
TAP	86	192	4
TAP	86	192	5
TAP	87	0	6
TAP	87	96	6
TAP	87	192	6
TAP	87	192	7
TAP	88	0	0
TAP	88	0	7
TAP	88	96	0
TAP	88	96	7
TAP	88	192	0
TAP	88	192	7
BRK	89	0	1
BRK	89	0	6
TAP	91	0	7
TAP	91	96	7
TAP	91	192	0
TAP	91	288	0
TAP	92	0	7
TAP	92	96	7
TAP	92	192	0
TAP	93	0	0
TAP	93	96	0
TAP	93	192	7
TAP	93	288	7
TAP	94	0	1
TAP	94	0	6
TAP	94	192	0
TAP	94	192	7
TAP	95	0	7
TAP	95	96	7
TAP	95	192	6
TAP	95	288	6
TAP	96	0	5
TAP	96	96	5
TAP	96	192	4
TAP	96	288	4
TAP	97	0	3
TAP	97	96	3
TAP	97	192	2
TAP	97	288	2
TAP	98	0	1
TAP	98	96	1
TAP	98	192	0
TAP	98	192	7
TAP	99	0	0
TAP	99	96	0
TAP	99	192	7
TAP	99	288	7
TAP	100	0	0
TAP	100	96	0
TAP	100	192	7
TAP	101	0	7
TAP	101	96	7
TAP	101	192	0
TAP	101	288	0
TAP	102	0	1
TAP	102	0	6
TAP	102	192	0
TAP	102	192	7
TAP	103	0	0
TAP	103	96	1
TAP	103	192	2
TAP	103	288	3
TAP	104	0	4
TAP	104	96	5
TAP	104	192	6
TAP	104	288	7
TAP	105	0	0
TAP	105	96	0
TAP	105	192	7
TAP	105	288	7
HLD	106	0	1	384
HLD	106	0	6	384
BRK	107	336	0
BRK	107	336	7
STR	109	0	0
SI_	109	0	0	96	288	3
STR	109	0	7
SI_	109	0	7	96	288	4

T_REC_TAP	264
T_REC_BRK	10
T_REC_XTP	0
T_REC_HLD	6
T_REC_XHO	0
T_REC_STR	9
T_REC_BST	0
T_REC_XST	0
T_REC_TTP	0
T_REC_THO	0
T_REC_SLD	9
T_REC_ALL	298
T_NUM_TAP	273
T_NUM_BRK	10
T_NUM_HLD	6
T_NUM_SLD	9
T_NUM_ALL	298
T_JUDGE_TAP	283
T_JUDGE_HLD	48
T_JUDGE_SLD	9
T_JUDGE_ALL	340
TTM_EACHPAIRS	51
TTM_SCR_TAP	136500
TTM_SCR_BRK	26000
TTM_SCR_HLD	6000
TTM_SCR_SLD	13500
TTM_SCR_ALL	182000
TTM_SCR_S	175600
TTM_SCR_SS	181000
TTM_RAT_ACV	10055

