VERSION	0.00.00	1.03.00
FES_MODE	0
BPM_DEF	256.000	256.000	256.000	256.000
MET_DEF	4	4
RESOLUTION	384
CLK_DEF	384
COMPATIBLE_CODE	MA2

BPM	0	0	256.000
MET	0	0	4	4

TAP	2	0	0
TAP	2	48	7
TAP	2	96	0
TAP	2	144	7
TAP	2	240	1
TAP	2	240	6
TAP	2	336	1
TAP	2	336	6
TAP	3	0	3
TAP	3	48	4
TAP	3	96	3
TAP	3	144	4
TAP	3	240	1
TAP	3	240	6
TAP	3	336	1
TAP	3	336	6
TAP	4	0	2
TAP	4	48	3
TAP	4	96	2
TAP	4	144	3
TAP	4	240	1
TAP	4	240	6
TAP	4	336	1
TAP	4	336	6
TAP	5	0	5
TAP	5	48	4
TAP	5	96	5
TAP	5	144	4
TAP	5	192	3
TAP	5	192	6
HLD	6	0	1	288
TAP	6	0	6
TAP	6	144	2
TAP	6	240	4
HLD	6	288	4	384
TAP	7	0	2
TAP	7	144	6
TAP	7	240	0
HLD	7	288	0	384
TAP	8	0	1
TAP	8	144	5
TAP	8	240	3
TAP	8	288	3
TAP	9	0	0
TAP	9	48	7
TAP	9	96	0
TAP	9	144	7
BRK	9	192	1
BRK	9	192	6
TAP	10	0	7
TAP	10	48	1
TAP	10	96	7
HLD	10	144	1	192
TAP	10	240	3
TAP	10	336	3
TAP	11	0	1
TAP	11	48	7
TAP	11	96	1
HLD	11	144	7	192
TAP	11	240	4
TAP	11	336	4
TAP	12	0	7
TAP	12	48	1
TAP	12	96	7
HLD	12	144	1	192
TAP	12	240	3
TAP	12	336	3
TAP	13	0	1
TAP	13	48	7
TAP	13	96	1
HLD	13	144	7	192
TAP	13	240	4
TAP	13	336	4
TAP	14	0	6
TAP	14	48	2
TAP	14	96	6
HLD	14	144	2	192
TAP	14	240	3
TAP	14	336	3
TAP	15	0	2
TAP	15	48	6
TAP	15	96	2
HLD	15	144	6	192
TAP	15	240	4
TAP	15	336	4
TAP	16	0	6
TAP	16	48	2
TAP	16	96	6
HLD	16	144	2	192
TAP	16	240	3
TAP	16	336	3
TAP	17	0	1
TAP	17	48	0
TAP	17	144	3
TAP	17	144	4
TAP	17	240	0
TAP	17	240	7
BRK	17	288	1
BRK	17	288	6
TAP	18	0	0
TAP	18	96	5
TAP	18	144	4
TAP	18	240	5
TAP	18	288	4
TAP	19	0	7
TAP	19	96	2
TAP	19	144	3
TAP	19	240	2
TAP	19	288	3
TAP	20	0	3
TAP	20	0	4
TAP	20	96	1
TAP	20	144	0
TAP	20	240	1
TAP	20	288	0
TAP	21	0	3
TAP	21	0	4
TAP	21	96	6
TAP	21	144	7
TAP	21	240	6
TAP	21	288	7
TAP	22	0	0
TAP	22	0	7
TAP	22	96	6
TAP	22	144	4
TAP	22	240	6
TAP	22	288	4
TAP	23	0	0
TAP	23	0	7
TAP	23	96	1
TAP	23	144	3
TAP	23	240	1
TAP	23	288	3
HLD	24	0	3	96
HLD	24	0	6	96
HLD	24	144	4	96
HLD	24	144	5	96
TAP	24	288	2
TAP	24	288	7
TAP	25	0	7
TAP	25	48	0
TAP	25	96	6
TAP	25	144	1
TAP	25	192	5
TAP	25	240	2
TAP	25	288	3
TAP	25	288	4
TAP	26	0	2
TAP	26	48	3
TAP	26	96	2
TAP	26	144	5
TAP	26	192	4
TAP	26	240	5
TAP	26	288	1
TAP	26	336	3
TAP	27	0	1
TAP	27	48	6
TAP	27	96	4
TAP	27	144	6
BRK	27	192	0
BRK	27	192	7
HLD	28	0	1	336
TAP	28	144	3
TAP	28	192	3
TAP	28	288	5
STR	28	336	5
SI_	28	336	5	96	72	0
STR	29	48	1
SI_	29	48	1	96	72	4
TAP	29	288	0
TAP	29	288	7
HLD	30	0	6	336
TAP	30	144	4
TAP	30	192	4
TAP	30	288	2
STR	30	336	2
SI_	30	336	2	96	72	6
STR	31	48	7
SI_	31	48	7	96	72	3
STR	31	144	1
SI_	31	144	1	96	72	4
HLD	32	0	5	336
TAP	32	144	7
TAP	32	192	7
TAP	32	288	1
TAP	32	336	1
TAP	33	48	3
TAP	33	48	4
TAP	33	144	6
TAP	33	144	7
TAP	33	288	0
TAP	33	288	1
HLD	34	0	3	96
HLD	34	0	6	96
HLD	34	192	1	96
HLD	34	192	4	96
HLD	34	336	5	144
HLD	35	96	6	96
HLD	35	192	7	96
TAP	35	288	0
HLD	36	0	6	336
TAP	36	144	4
TAP	36	192	4
TAP	36	288	2
STR	36	336	2
SI_	36	336	2	96	72	7
STR	37	48	6
SI_	37	48	6	96	72	3
TAP	37	288	0
TAP	37	288	7
HLD	38	0	1	336
TAP	38	144	3
TAP	38	192	3
TAP	38	288	5
STR	38	336	5
SI_	38	336	5	96	72	1
STR	39	48	0
SI_	39	48	0	96	72	4
STR	39	144	6
SI_	39	144	6	96	72	3
HLD	40	0	2	336
TAP	40	144	4
TAP	40	192	4
TAP	40	288	6
TAP	40	336	6
TAP	41	48	6
TAP	41	48	7
TAP	41	144	0
TAP	41	144	1
TAP	41	288	3
TAP	41	288	4
STR	42	0	2
SI_	42	0	2	96	72	0
TAP	42	0	4
TAP	42	192	3
STR	42	192	5
SI_	42	192	5	96	72	7
STR	43	0	2
SI_	43	0	2	96	72	7
TAP	43	0	4
TAP	43	192	3
STR	43	192	5
SI_	43	192	5	96	72	0
BRK	44	0	1
TAP	45	0	2
TAP	45	144	3
TAP	45	288	4
HLD	46	0	5	192
TAP	46	288	1
TAP	47	0	6
HLD	47	144	2	384
TAP	47	288	3
TAP	48	0	4
HLD	48	144	5	384
TAP	48	288	4
TAP	49	0	3
TAP	49	144	2
TAP	49	240	7
TAP	49	288	0
TAP	50	0	1
TAP	50	0	6
TAP	50	144	2
TAP	50	144	3
TAP	50	288	4
TAP	50	288	5
STR	51	0	0
SI_	51	0	0	96	96	5
STR	51	192	7
SI_	51	192	7	96	96	2
BRK	52	0	0
TAP	52	96	5
TAP	52	144	5
TAP	52	240	2
TAP	52	288	2
TAP	53	0	3
TAP	53	0	4
TAP	53	96	2
TAP	53	144	2
TAP	53	240	5
TAP	53	288	5
TAP	54	0	0
TAP	54	0	7
TAP	54	96	6
TAP	54	144	7
TAP	54	240	1
TAP	54	288	0
TAP	55	0	0
TAP	55	0	7
TAP	55	96	1
TAP	55	144	0
TAP	55	240	6
TAP	55	288	7
TAP	56	0	0
TAP	56	0	7
TAP	56	96	2
TAP	56	144	3
TAP	56	240	5
TAP	56	288	4
TAP	57	0	2
TAP	57	48	3
TAP	57	144	7
TAP	57	192	1
TAP	57	240	6
TAP	57	288	2
TAP	57	336	5
HLD	58	0	3	96
HLD	58	0	4	96
HLD	58	144	2	96
HLD	58	144	5	96
HLD	58	288	1	96
HLD	58	288	6	96
HLD	59	48	0	96
HLD	59	48	7	96
BRK	59	192	2
BRK	59	192	5
TAP	60	0	5
TAP	60	48	0
TAP	60	48	5
TAP	60	144	2
TAP	60	192	2
TAP	60	192	7
TAP	60	288	5
TAP	60	336	0
TAP	60	336	5
STR	61	48	1
SI_	61	48	1	96	48	4
TAP	61	144	1
STR	61	192	7
SI_	61	192	7	96	48	3
TAP	61	288	7
TAP	62	0	2
TAP	62	48	2
TAP	62	48	7
TAP	62	144	5
TAP	62	192	0
TAP	62	192	5
TAP	62	288	2
TAP	62	336	2
TAP	62	336	7
STR	63	48	6
SI_	63	48	6	96	48	3
TAP	63	144	6
STR	63	192	0
SI_	63	192	0	96	48	4
TAP	63	288	0
STR	64	0	7
SCL	64	0	7	96	192	0
STR	64	288	7
SCL	64	288	7	96	288	0
HLD	66	0	6	192
TAP	66	96	4
HLD	66	192	1	192
TAP	66	288	3
HLD	67	0	7	192
TAP	67	96	5
HLD	67	192	0	192
TAP	67	288	2
TAP	68	0	6
TAP	68	96	3
TAP	68	144	3
TAP	68	240	7
STR	68	288	7
SI_	68	288	7	96	48	3
STR	69	0	0
SI_	69	0	0	96	48	2
STR	69	96	6
SI_	69	96	6	96	48	4
TAP	69	192	7
BRK	69	288	0
TAP	70	0	1
TAP	70	96	4
TAP	70	144	4
TAP	70	240	0
STR	70	288	0
SI_	70	288	0	96	48	4
STR	71	0	7
SI_	71	0	7	96	48	5
STR	71	96	1
SI_	71	96	1	96	48	3
TAP	71	192	0
BRK	71	288	7
TAP	72	0	0
TAP	72	48	7
TAP	72	96	2
TAP	72	144	7
TAP	72	192	0
TAP	72	240	7
TAP	72	288	3
TAP	72	336	7
TAP	73	0	0
TAP	73	48	7
TAP	73	96	4
TAP	73	144	7
TAP	73	192	0
TAP	73	240	7
TAP	73	288	5
TAP	73	336	7
STR	74	0	2
SI_	74	0	2	96	72	7
STR	74	144	5
SI_	74	144	5	96	72	0
STR	74	288	2
SI_	74	288	2	96	72	6
STR	75	48	7
SI_	75	48	7	96	48	3
BRK	75	192	0
TAP	76	0	2
TAP	76	48	0
TAP	76	48	2
TAP	76	144	5
TAP	76	192	5
TAP	76	192	7
TAP	76	288	2
TAP	76	336	0
TAP	76	336	2
STR	77	48	6
SI_	77	48	6	96	48	3
TAP	77	144	6
STR	77	192	0
SI_	77	192	0	96	48	4
TAP	77	288	0
TAP	78	0	5
TAP	78	48	5
TAP	78	48	7
TAP	78	144	2
TAP	78	192	0
TAP	78	192	2
TAP	78	288	5
TAP	78	336	5
TAP	78	336	7
STR	79	48	1
SI_	79	48	1	96	48	4
TAP	79	144	1
STR	79	192	7
SI_	79	192	7	96	48	3
TAP	79	288	7
STR	80	0	0
SCR	80	0	0	96	192	7
STR	80	288	0
SCR	80	288	0	96	288	7
HLD	82	0	1	192
TAP	82	96	3
HLD	82	192	6	192
TAP	82	288	4
HLD	83	0	0	192
TAP	83	96	2
HLD	83	192	7	192
TAP	83	288	5
TAP	84	0	0
TAP	84	96	1
HLD	84	144	2	144
TAP	84	240	7
STR	84	288	7
SI_	84	288	7	96	48	3
STR	85	0	1
SI_	85	0	1	96	48	5
STR	85	96	6
SI_	85	96	6	96	48	3
TAP	85	192	2
BRK	85	288	0
TAP	86	0	7
TAP	86	96	6
HLD	86	144	5	144
TAP	86	240	0
STR	86	288	0
SI_	86	288	0	96	48	4
STR	87	0	6
SI_	87	0	6	96	48	2
STR	87	96	1
SI_	87	96	1	96	48	4
TAP	87	192	5
BRK	87	288	7
TAP	88	0	0
TAP	88	48	4
TAP	88	96	7
TAP	88	144	4
TAP	88	192	6
TAP	88	240	4
TAP	88	288	5
TAP	88	336	4
TAP	89	0	3
TAP	89	48	4
TAP	89	96	2
TAP	89	144	4
TAP	89	192	1
TAP	89	240	4
STR	89	288	0
SI_	89	288	0	96	96	3
STR	90	0	3
SI_	90	0	3	96	96	6
STR	90	96	6
SI_	90	96	6	96	96	1
STR	90	192	1
SI_	90	192	1	96	96	4
STR	90	288	4
SI_	90	288	4	96	96	0
STR	91	0	0
SCR	91	0	0	96	96	4
STR	91	96	4
SCR	91	96	4	96	72	7
BRK	91	192	0
STR	92	0	6
SUL	92	0	6	96	288	3
TAP	93	0	6
TAP	93	144	7
TAP	93	288	0
STR	94	0	1
SUR	94	0	1	96	288	4
TAP	95	0	1
TAP	95	144	0
TAP	95	288	7
STR	96	0	5
SCR	96	0	5	96	240	0
TAP	96	144	3
TAP	96	288	2
STR	97	0	1
SCR	97	0	1	96	240	4
TAP	97	288	5
TAP	98	0	6
TAP	98	144	7
TAP	98	288	0
HLD	99	0	1	192
BRK	99	192	7
HLD	100	0	0	384
TAP	100	96	7
TAP	100	144	7
TAP	100	240	2
TAP	100	288	2
HLD	101	0	5	384
TAP	101	96	6
TAP	101	144	6
TAP	101	240	3
TAP	101	288	3
HLD	102	0	0	384
TAP	102	96	7
TAP	102	144	6
TAP	102	240	4
TAP	102	288	5
HLD	103	0	5	384
TAP	103	96	4
TAP	103	144	3
TAP	103	240	1
TAP	103	288	2
TAP	104	0	1
TAP	104	96	0
TAP	104	96	7
TAP	104	144	0
TAP	104	144	7
TAP	104	240	5
TAP	104	240	6
TAP	104	288	5
TAP	104	288	6
TAP	105	0	3
TAP	105	0	4
TAP	105	48	3
TAP	105	48	4
TAP	105	144	1
TAP	105	144	2
TAP	105	192	1
TAP	105	192	2
TAP	105	288	0
TAP	105	288	7
STR	106	0	1
SI_	106	0	1	96	48	5
TAP	106	96	1
STR	106	144	6
SI_	106	144	6	96	48	2
TAP	106	240	6
STR	106	288	0
SI_	106	288	0	96	48	4
TAP	107	0	0
STR	107	48	7
SI_	107	48	7	96	48	3
TAP	107	144	7
STR	107	192	1
SI_	107	192	1	96	48	5
TAP	107	288	1
BRK	108	0	6
TAP	108	48	4
TAP	108	96	6
BRK	108	144	1
TAP	108	192	3
TAP	108	240	1
BRK	108	288	7
TAP	108	336	0
TAP	109	0	7
BRK	109	48	1
TAP	109	96	6
TAP	109	144	1
STR	109	192	0
SI_	109	192	0	96	48	2
STR	109	192	7
SI_	109	192	7	96	48	5
BRK	109	288	0
BRK	109	288	7
STR	110	288	4
SI_	110	288	4	96	96	1
STR	110	288	5
SI_	110	288	5	96	96	0
BRK	111	192	2
BRK	111	192	7
TAP	112	0	2
TAP	112	0	4
TAP	112	48	0
TAP	112	144	3
TAP	112	144	5
TAP	112	192	7
TAP	112	288	2
TAP	112	288	4
TAP	112	336	0
TAP	113	48	3
TAP	113	48	5
TAP	113	144	0
STR	113	192	1
SI_	113	192	1	96	48	4
STR	113	192	7
SI_	113	192	7	96	48	4
TAP	114	0	3
TAP	114	0	5
TAP	114	48	7
TAP	114	144	2
TAP	114	144	4
TAP	114	192	0
TAP	114	288	3
TAP	114	288	5
TAP	114	336	7
TAP	115	48	2
TAP	115	48	4
TAP	115	144	7
STR	115	192	0
SI_	115	192	0	96	48	3
STR	115	192	6
SI_	115	192	6	96	48	3
STR	116	0	4
SCR	116	0	4	96	192	3
STR	116	288	4
SCR	116	288	4	96	288	3
STR	118	0	6
SI_	118	0	6	96	48	3
TAP	118	96	0
STR	118	192	1
SI_	118	192	1	96	48	4
TAP	118	288	7
STR	119	0	6
SI_	119	0	6	96	48	2
TAP	119	96	0
STR	119	192	1
SI_	119	192	1	96	48	5
TAP	119	288	7
HLD	120	0	6	288
TAP	120	96	4
TAP	120	144	4
TAP	120	240	1
STR	120	288	1
SI_	120	288	1	96	48	4
STR	121	0	7
SI_	121	0	7	96	48	2
STR	121	96	0
SI_	121	96	0	96	48	4
TAP	121	192	7
BRK	121	288	6
HLD	122	0	1	288
TAP	122	96	3
TAP	122	144	3
TAP	122	240	6
STR	122	288	6
SI_	122	288	6	96	48	3
STR	123	0	0
SI_	123	0	0	96	48	5
STR	123	96	7
SI_	123	96	7	96	48	3
TAP	123	192	0
BRK	123	288	1
TAP	124	0	7
TAP	124	48	0
TAP	124	96	5
TAP	124	144	0
TAP	124	192	7
TAP	124	240	0
TAP	124	288	4
TAP	124	336	0
TAP	125	0	7
TAP	125	48	0
TAP	125	96	3
TAP	125	144	0
TAP	125	192	7
TAP	125	240	0
TAP	125	288	2
TAP	125	336	0
STR	126	0	5
SI_	126	0	5	96	48	0
STR	126	144	2
SI_	126	144	2	96	48	7
STR	126	288	5
SI_	126	288	5	96	48	1
STR	127	48	0
SI_	127	48	0	96	48	4
BRK	127	192	7
TAP	128	0	3
TAP	128	0	5
TAP	128	48	0
TAP	128	144	2
TAP	128	144	4
TAP	128	192	7
TAP	128	288	3
TAP	128	288	5
TAP	128	336	0
TAP	129	48	2
TAP	129	48	4
TAP	129	144	7
STR	129	192	0
SI_	129	192	0	96	48	3
STR	129	192	6
SI_	129	192	6	96	48	3
TAP	130	0	2
TAP	130	0	4
TAP	130	48	7
TAP	130	144	3
TAP	130	144	5
TAP	130	192	0
TAP	130	288	2
TAP	130	288	4
TAP	130	336	7
TAP	131	48	3
TAP	131	48	5
TAP	131	144	0
STR	131	192	1
SI_	131	192	1	96	48	4
STR	131	192	7
SI_	131	192	7	96	48	4
STR	132	0	3
SCL	132	0	3	96	192	4
STR	132	288	3
SCL	132	288	3	96	288	4
STR	134	0	0
SI_	134	0	0	96	48	4
TAP	134	96	6
STR	134	192	7
SI_	134	192	7	96	48	3
TAP	134	288	1
STR	135	0	0
SI_	135	0	0	96	48	5
TAP	135	96	6
STR	135	192	7
SI_	135	192	7	96	48	2
TAP	135	288	1
TAP	136	0	0
TAP	136	96	1
HLD	136	144	2	144
TAP	136	240	5
STR	136	288	5
SI_	136	288	5	96	96	0
STR	137	0	0
SI_	137	0	0	96	96	3
STR	137	96	3
SI_	137	96	3	96	96	6
TAP	137	192	6
BRK	137	288	0
TAP	138	0	7
TAP	138	96	6
HLD	138	144	5	144
TAP	138	240	2
STR	138	288	2
SI_	138	288	2	96	96	7
STR	139	0	7
SI_	139	0	7	96	96	4
STR	139	96	4
SI_	139	96	4	96	96	1
TAP	139	192	1
BRK	139	288	7
STR	140	0	0
SSL	140	0	0	96	192	4
TAP	140	288	7
STR	141	0	6
SSL	141	0	6	96	192	2
STR	141	288	0
SI_	141	288	0	96	72	4
STR	142	0	6
SI_	142	0	6	96	72	3
STR	142	144	2
SCL	142	144	2	96	144	5
HLD	143	192	2	96
HLD	143	288	6	96
TAP	144	0	3
TAP	144	48	7
TAP	144	96	2
TAP	144	144	7
TAP	144	192	1
TAP	144	240	7
TAP	144	288	0
TAP	144	336	7
TAP	145	0	6
TAP	145	48	7
TAP	145	96	5
TAP	145	144	7
TAP	145	192	4
TAP	145	240	7
STR	145	288	3
SCL	145	288	3	96	96	7
STR	146	0	7
SCL	146	0	7	96	96	3
STR	146	96	3
SCL	146	96	3	96	96	7
STR	146	192	7
SCL	146	192	7	96	96	3
STR	146	288	3
SCL	146	288	3	96	96	7
STR	147	0	7
SCL	147	0	7	96	96	3
STR	147	96	3
SI_	147	96	3	96	48	7
BRK	147	192	7
TAP	148	0	2
TAP	148	48	4
TAP	148	96	2
TAP	148	144	5
TAP	148	192	3
TAP	148	240	5
TAP	148	288	1
TAP	148	336	3
TAP	149	0	1
TAP	149	48	6
TAP	149	96	4
TAP	149	144	6
TAP	149	192	0
TAP	149	240	7
TAP	149	288	0
TAP	149	336	7
TAP	150	0	1
TAP	150	48	1
TAP	150	96	6
TAP	150	144	6
TAP	150	240	0
TAP	150	264	1
TAP	150	288	2
TAP	150	336	7
TAP	151	48	1
TAP	151	96	6
TAP	151	192	2
TAP	151	192	5
STR	151	240	0
SI_	151	240	0	96	48	3
STR	151	240	7
SI_	151	240	7	96	48	4
BRK	151	336	0
BRK	151	336	7

T_REC_TAP	526
T_REC_BRK	33
T_REC_XTP	0
T_REC_HLD	59
T_REC_XHO	0
T_REC_STR	114
T_REC_BST	0
T_REC_XST	0
T_REC_TTP	0
T_REC_THO	0
T_REC_SLD	114
T_REC_ALL	846
T_NUM_TAP	640
T_NUM_BRK	33
T_NUM_HLD	59
T_NUM_SLD	114
T_NUM_ALL	846
T_JUDGE_TAP	673
T_JUDGE_HLD	129
T_JUDGE_SLD	114
T_JUDGE_ALL	916
TTM_EACHPAIRS	95
TTM_SCR_TAP	320000
TTM_SCR_BRK	85800
TTM_SCR_HLD	59000
TTM_SCR_SLD	171000
TTM_SCR_ALL	635800
TTM_SCR_S	613550
TTM_SCR_SS	632500
TTM_RAT_ACV	10052

