VERSION	0.00.00	1.03.00
FES_MODE	0
BPM_DEF	256.000	256.000	256.000	256.000
MET_DEF	4	4
RESOLUTION	384
CLK_DEF	384
COMPATIBLE_CODE	MA2

BPM	0	0	256.000
MET	0	0	4	4

HLD	2	0	2	144
TAP	2	144	3
TAP	2	240	3
HLD	3	0	5	144
TAP	3	144	4
TAP	3	240	4
HLD	4	0	6	144
TAP	4	144	7
TAP	4	240	7
HLD	5	0	1	144
TAP	5	144	0
TAP	5	240	0
HLD	6	0	2	96
TAP	6	96	3
TAP	6	144	2
TAP	6	240	1
HLD	7	0	5	96
TAP	7	96	4
TAP	7	144	5
TAP	7	240	6
HLD	8	0	3	96
TAP	8	96	4
TAP	8	144	3
TAP	8	240	2
TAP	8	240	5
TAP	9	0	0
TAP	9	0	7
STR	9	96	0
SI_	9	96	0	96	96	3
STR	9	96	7
SI_	9	96	7	96	96	4
TAP	10	0	4
TAP	10	0	5
TAP	10	96	3
TAP	10	144	4
TAP	10	240	2
TAP	10	240	3
TAP	11	0	2
TAP	11	0	3
TAP	11	96	4
TAP	11	144	3
TAP	11	240	4
TAP	11	240	5
TAP	12	0	6
TAP	12	0	7
TAP	12	96	0
TAP	12	144	7
TAP	12	240	0
TAP	12	240	1
TAP	13	0	0
TAP	13	0	1
TAP	13	96	7
TAP	13	144	0
TAP	13	240	6
TAP	13	240	7
TAP	14	0	3
TAP	14	0	4
TAP	14	96	2
TAP	14	144	3
TAP	14	240	1
TAP	14	240	4
TAP	15	0	3
TAP	15	0	4
TAP	15	96	5
TAP	15	144	4
TAP	15	240	3
TAP	15	240	6
TAP	16	0	0
TAP	16	0	7
TAP	16	96	1
TAP	16	144	0
TAP	16	240	2
TAP	16	240	7
TAP	17	0	0
TAP	17	0	7
STR	17	96	0
SI_	17	96	0	96	96	4
STR	17	96	7
SI_	17	96	7	96	96	3
TAP	18	0	2
TAP	18	96	2
TAP	18	96	3
TAP	18	192	2
TAP	18	288	2
TAP	18	288	3
TAP	19	0	5
TAP	19	96	4
TAP	19	96	5
TAP	19	192	5
TAP	19	288	4
TAP	19	288	5
TAP	20	0	2
TAP	20	96	2
TAP	20	96	3
TAP	20	192	2
TAP	20	288	1
TAP	20	288	3
TAP	21	0	5
TAP	21	96	4
TAP	21	96	5
TAP	21	192	5
TAP	21	288	4
TAP	21	288	6
TAP	22	0	2
TAP	22	0	3
TAP	22	96	2
TAP	22	96	3
TAP	22	192	4
TAP	22	192	5
TAP	22	288	4
TAP	22	288	5
TAP	23	0	1
TAP	23	0	3
TAP	23	96	1
TAP	23	96	3
TAP	23	192	4
TAP	23	192	6
TAP	23	288	4
TAP	23	288	6
TAP	24	0	0
TAP	24	0	1
TAP	24	96	0
TAP	24	96	1
TAP	24	192	6
TAP	24	192	7
TAP	24	288	6
TAP	24	288	7
TAP	25	0	4
TAP	25	0	5
TAP	25	96	2
TAP	25	96	3
TAP	25	192	3
TAP	25	192	4
HLD	26	0	0	96
HLD	26	0	7	96
HLD	26	144	1	96
HLD	26	144	6	96
HLD	26	288	2	96
HLD	26	288	5	96
HLD	27	48	3	96
HLD	27	48	4	96
BRK	27	192	1
BRK	27	192	6
HLD	28	0	2	144
TAP	28	144	3
TAP	28	192	2
TAP	28	288	2
TAP	28	336	3
TAP	29	48	1
TAP	29	48	4
TAP	29	144	0
TAP	29	144	5
TAP	29	240	6
TAP	29	288	6
HLD	30	0	5	144
TAP	30	144	4
TAP	30	192	5
TAP	30	288	5
TAP	30	336	4
TAP	31	48	3
TAP	31	48	6
TAP	31	144	2
TAP	31	144	7
TAP	31	240	1
TAP	31	288	1
HLD	32	0	2	144
TAP	32	144	3
TAP	32	192	2
TAP	32	288	2
TAP	32	336	3
TAP	33	48	1
TAP	33	48	4
TAP	33	144	3
TAP	33	144	6
TAP	33	288	1
STR	34	0	1
SI_	34	0	1	96	96	5
STR	34	192	6
SI_	34	192	6	96	96	2
TAP	35	0	1
TAP	35	96	0
TAP	35	192	7
TAP	35	288	1
TAP	35	288	6
HLD	36	0	5	144
TAP	36	144	4
TAP	36	192	5
TAP	36	288	5
TAP	36	336	4
TAP	37	48	3
TAP	37	48	6
TAP	37	144	2
TAP	37	144	7
TAP	37	240	1
TAP	37	288	0
HLD	38	0	2	144
TAP	38	144	3
TAP	38	192	2
TAP	38	288	2
TAP	38	336	3
TAP	39	48	1
TAP	39	48	4
TAP	39	144	0
TAP	39	144	5
TAP	39	240	6
TAP	39	288	7
HLD	40	0	5	144
TAP	40	144	4
TAP	40	192	5
TAP	40	288	5
TAP	40	336	4
TAP	41	48	3
TAP	41	48	6
TAP	41	144	1
TAP	41	144	4
TAP	41	288	6
STR	42	0	6
SI_	42	0	6	96	96	2
STR	42	192	0
SI_	42	192	0	96	96	4
STR	43	0	7
SI_	43	0	7	96	96	3
STR	43	192	1
SI_	43	192	1	96	96	5
BRK	44	0	7
TAP	45	0	1
TAP	45	144	2
TAP	45	288	3
TAP	46	0	4
TAP	46	0	5
TAP	47	0	6
TAP	47	144	5
TAP	47	288	4
TAP	48	0	2
TAP	48	0	3
TAP	48	144	1
TAP	48	288	2
TAP	49	0	3
TAP	49	0	4
TAP	49	144	6
TAP	49	288	5
TAP	50	0	3
TAP	50	0	4
TAP	50	144	2
TAP	50	288	1
TAP	51	0	0
TAP	51	0	7
STR	51	192	1
SCL	51	192	1	96	144	6
STR	52	0	4
SCR	52	0	4	96	384	3
TAP	53	288	1
TAP	54	0	0
TAP	54	0	1
TAP	54	144	0
TAP	54	144	7
HLD	54	288	6	192
TAP	54	288	7
TAP	55	96	7
TAP	55	192	0
TAP	55	192	5
TAP	55	288	1
TAP	55	288	4
TAP	56	0	2
TAP	56	48	2
TAP	56	144	3
TAP	56	192	3
TAP	56	288	4
TAP	56	336	4
TAP	57	48	5
TAP	57	96	5
TAP	57	192	0
TAP	57	192	7
BRK	58	0	1
BRK	58	0	2
BRK	58	144	5
BRK	58	144	6
BRK	58	288	3
BRK	58	288	4
BRK	59	48	0
BRK	59	48	7
TAP	60	0	2
TAP	60	48	3
TAP	60	144	1
TAP	60	192	0
TAP	60	288	2
TAP	60	336	3
STR	61	48	1
SI_	61	48	1	96	96	5
TAP	61	144	6
TAP	61	192	6
TAP	62	0	5
TAP	62	48	4
TAP	62	144	6
TAP	62	192	7
TAP	62	288	5
TAP	62	336	4
STR	63	48	6
SI_	63	48	6	96	96	2
TAP	63	144	1
TAP	63	192	1
TAP	63	288	0
STR	64	0	0
SI_	64	0	0	96	96	3
TAP	64	192	4
STR	64	288	4
SUR	64	288	4	96	288	7
TAP	66	0	0
TAP	66	0	7
HLD	66	192	3	96
HLD	66	192	7	96
HLD	67	0	2	96
HLD	67	0	6	96
HLD	67	192	1	96
HLD	67	192	5	96
HLD	68	0	4	144
HLD	68	144	5	144
TAP	68	288	6
HLD	69	0	3	144
HLD	69	144	2	144
TAP	69	288	1
HLD	70	0	5	144
HLD	70	144	4	144
TAP	70	288	3
TAP	71	0	1
TAP	71	0	6
TAP	71	192	0
TAP	71	192	7
TAP	71	288	1
TAP	71	288	6
STR	72	0	2
SV_	72	0	2	96	96	4
TAP	72	0	5
STR	72	192	5
SV_	72	192	5	96	96	3
STR	73	0	0
SI_	73	0	0	96	96	4
TAP	73	192	7
TAP	74	0	5
TAP	74	0	6
TAP	74	144	1
TAP	74	144	2
TAP	74	288	0
TAP	74	288	7
TAP	75	48	3
TAP	75	48	4
BRK	75	192	1
BRK	75	192	6
TAP	76	0	5
TAP	76	48	4
TAP	76	144	6
TAP	76	192	7
TAP	76	288	5
TAP	76	336	4
STR	77	48	6
SI_	77	48	6	96	96	2
TAP	77	144	1
TAP	77	192	1
TAP	78	0	2
TAP	78	48	3
TAP	78	144	1
TAP	78	192	0
TAP	78	288	2
TAP	78	336	3
STR	79	48	1
SI_	79	48	1	96	96	5
TAP	79	144	6
TAP	79	192	6
TAP	79	288	7
STR	80	0	7
SI_	80	0	7	96	96	4
TAP	80	192	3
STR	80	288	3
SUL	80	288	3	96	288	0
TAP	82	0	0
TAP	82	0	7
HLD	82	192	0	96
HLD	82	192	4	96
HLD	83	0	1	96
HLD	83	0	5	96
HLD	83	192	2	96
HLD	83	192	6	96
HLD	84	0	3	144
HLD	84	144	2	144
TAP	84	288	1
HLD	85	0	4	144
HLD	85	144	5	144
TAP	85	288	6
HLD	86	0	2	144
HLD	86	144	3	144
TAP	86	288	4
TAP	87	0	1
TAP	87	0	6
TAP	87	192	2
TAP	87	192	5
STR	87	288	3
SCL	87	288	3	96	96	0
STR	87	288	4
SCR	87	288	4	96	96	7
TAP	88	288	1
STR	89	0	1
SI_	89	0	1	96	96	5
STR	89	192	6
SI_	89	192	6	96	96	2
HLD	90	0	1	144
HLD	90	144	0	144
HLD	90	288	7	144
HLD	91	48	6	144
TAP	91	192	7
TAP	91	288	0
STR	92	0	1
SUR	92	0	1	96	480	4
BRK	92	0	6
STR	94	0	6
SUL	94	0	6	96	480	3
STR	96	0	3
SV_	96	0	3	96	144	4
STR	97	0	5
SUR	97	0	5	96	144	2
STR	98	0	1
SCL	98	0	1	96	144	6
TAP	99	0	3
TAP	99	0	4
STR	99	192	6
SCR	99	192	6	96	144	1
STR	100	0	3
SCL	100	0	3	96	384	4
TAP	101	288	6
HLD	102	0	6	144
HLD	102	144	0	144
HLD	102	288	7	192
TAP	103	96	0
TAP	103	192	1
TAP	103	192	6
HLD	104	0	1	144
HLD	104	144	7	144
HLD	104	288	0	192
TAP	105	96	7
TAP	105	192	1
TAP	105	192	6
TAP	105	288	2
TAP	105	288	5
BRK	106	0	3
BRK	106	0	4
BRK	106	144	0
BRK	106	144	2
BRK	106	288	5
BRK	106	288	7
BRK	107	48	3
BRK	107	48	4
BRK	107	192	1
BRK	107	192	6
TAP	108	0	3
TAP	108	0	4
TAP	108	144	5
TAP	108	144	7
TAP	108	288	0
TAP	108	288	2
TAP	109	48	3
TAP	109	48	4
HLD	109	192	1	480
HLD	109	192	6	576
BRK	111	192	1
BRK	111	192	6
TAP	112	0	2
TAP	112	48	3
TAP	112	144	3
TAP	112	192	4
TAP	112	288	4
TAP	112	336	5
STR	113	48	6
SI_	113	48	6	96	96	3
TAP	113	144	2
TAP	113	192	2
TAP	114	0	5
TAP	114	48	4
TAP	114	144	4
TAP	114	192	3
TAP	114	288	3
TAP	114	336	2
STR	115	48	1
SI_	115	48	1	96	96	4
TAP	115	144	5
TAP	115	192	5
TAP	115	288	6
STR	116	0	6
SI_	116	0	6	96	96	3
TAP	116	192	2
STR	116	288	2
SUL	116	288	2	96	288	7
TAP	118	0	0
TAP	118	0	4
HLD	118	192	2	96
HLD	118	192	3	96
HLD	119	0	5	96
HLD	119	0	6	96
HLD	119	192	0	96
HLD	119	192	1	96
HLD	120	0	4	144
HLD	120	144	6	144
TAP	120	288	7
HLD	121	0	3	144
HLD	121	144	1	144
TAP	121	288	0
HLD	122	0	6	144
HLD	122	144	4	144
TAP	122	288	3
TAP	123	0	1
TAP	123	0	6
TAP	123	192	0
TAP	123	192	7
TAP	123	288	1
TAP	123	288	6
TAP	124	0	2
STR	124	0	5
SV_	124	0	5	96	96	3
STR	124	192	2
SV_	124	192	2	96	96	4
STR	125	0	7
SI_	125	0	7	96	96	3
TAP	125	192	0
TAP	126	0	5
TAP	126	0	7
TAP	126	144	0
TAP	126	144	2
TAP	126	288	1
TAP	126	288	6
TAP	127	48	3
TAP	127	48	4
BRK	127	192	0
BRK	127	192	7
TAP	128	0	5
TAP	128	48	4
TAP	128	144	4
TAP	128	192	3
TAP	128	288	3
TAP	128	336	2
STR	129	48	1
SI_	129	48	1	96	96	4
TAP	129	144	5
TAP	129	192	5
TAP	130	0	2
TAP	130	48	3
TAP	130	144	3
TAP	130	192	4
TAP	130	288	4
TAP	130	336	5
STR	131	48	6
SI_	131	48	6	96	96	3
TAP	131	144	2
TAP	131	192	2
TAP	131	288	1
STR	132	0	1
SI_	132	0	1	96	96	4
TAP	132	192	5
STR	132	288	5
SUR	132	288	5	96	288	0
TAP	134	0	3
TAP	134	0	7
HLD	134	192	4	96
HLD	134	192	5	96
HLD	135	0	1	96
HLD	135	0	2	96
HLD	135	192	6	96
HLD	135	192	7	96
HLD	136	0	3	144
HLD	136	144	1	144
TAP	136	288	0
HLD	137	0	4	144
HLD	137	144	6	144
TAP	137	288	7
HLD	138	0	1	144
HLD	138	144	3	144
TAP	138	288	4
TAP	139	0	1
TAP	139	0	6
TAP	139	192	0
TAP	139	192	7
STR	139	288	0
SCR	139	288	0	96	96	3
STR	139	288	7
SCL	139	288	7	96	96	4
TAP	140	288	1
STR	141	0	1
SCL	141	0	1	96	96	6
TAP	141	288	5
STR	142	0	5
SCR	142	0	5	96	240	2
TAP	143	192	1
TAP	143	192	6
STR	143	288	3
SCL	143	288	3	96	96	0
STR	143	288	4
SCR	143	288	4	96	96	7
TAP	144	288	1
STR	145	0	1
SI_	145	0	1	96	72	5
STR	145	192	6
SI_	145	192	6	96	72	2
STR	146	0	3
SCL	146	0	3	96	576	4
HLD	148	0	3	96
HLD	148	0	4	96
HLD	148	144	2	96
HLD	148	144	5	96
HLD	148	288	1	96
HLD	148	288	6	96
HLD	149	48	0	96
HLD	149	48	7	96
TAP	149	192	0
TAP	149	240	7
TAP	149	288	0
TAP	149	336	7
TAP	151	192	1
TAP	151	192	6
STR	151	240	1
SSR	151	240	1	96	144	5
TAP	151	240	6

T_REC_TAP	390
T_REC_BRK	28
T_REC_XTP	0
T_REC_HLD	90
T_REC_XHO	0
T_REC_STR	55
T_REC_BST	0
T_REC_XST	0
T_REC_TTP	0
T_REC_THO	0
T_REC_SLD	55
T_REC_ALL	618
T_NUM_TAP	445
T_NUM_BRK	28
T_NUM_HLD	90
T_NUM_SLD	55
T_NUM_ALL	618
T_JUDGE_TAP	473
T_JUDGE_HLD	144
T_JUDGE_SLD	55
T_JUDGE_ALL	672
TTM_EACHPAIRS	139
TTM_SCR_TAP	222500
TTM_SCR_BRK	72800
TTM_SCR_HLD	90000
TTM_SCR_SLD	82500
TTM_SCR_ALL	467800
TTM_SCR_S	451050
TTM_SCR_SS	465000
TTM_RAT_ACV	10060

