VERSION	0.00.00	1.03.00
FES_MODE	0
BPM_DEF	256.000	256.000	256.000	256.000
MET_DEF	4	4
RESOLUTION	384
CLK_DEF	384
COMPATIBLE_CODE	MA2

BPM	0	0	256.000
MET	0	0	4	4

TAP	10	0	0
TAP	10	192	0
TAP	11	0	2
TAP	11	192	2
TAP	12	0	4
TAP	12	192	4
TAP	13	0	6
TAP	13	192	6
TAP	14	0	1
TAP	14	192	2
TAP	15	0	3
TAP	15	192	4
TAP	16	0	5
TAP	16	192	6
TAP	17	0	0
TAP	17	0	7
TAP	18	0	7
TAP	18	192	7
TAP	19	0	5
TAP	19	192	5
TAP	20	0	3
TAP	20	192	3
TAP	21	0	1
TAP	21	192	1
TAP	22	0	6
TAP	22	192	5
TAP	23	0	4
TAP	23	192	3
TAP	24	0	2
TAP	24	192	1
TAP	25	0	0
TAP	25	0	7
STR	26	0	0
SCR	26	0	0	96	288	3
STR	26	0	7
SCL	26	0	7	96	288	4
TAP	28	0	2
TAP	28	192	2
TAP	29	0	2
TAP	29	192	2
TAP	29	192	3
TAP	30	0	5
TAP	30	192	5
TAP	31	0	5
TAP	31	192	4
TAP	31	192	5
TAP	32	0	6
TAP	32	192	6
TAP	33	0	6
TAP	33	192	6
TAP	33	192	7
TAP	34	0	1
TAP	34	192	1
TAP	35	0	1
TAP	35	192	0
TAP	35	192	1
TAP	36	0	2
TAP	36	192	2
TAP	37	0	1
TAP	37	0	3
TAP	37	192	1
TAP	37	192	3
TAP	38	0	5
TAP	38	192	5
TAP	39	0	4
TAP	39	0	6
TAP	39	192	4
TAP	39	192	6
TAP	40	0	7
TAP	40	192	0
TAP	41	0	0
TAP	41	0	7
TAP	41	192	0
TAP	41	192	7
HLD	42	0	1	192
TAP	42	192	0
HLD	43	0	6	192
TAP	43	192	7
HLD	44	0	0	384
HLD	44	0	7	384
HLD	46	0	1	384
HLD	46	0	6	384
HLD	48	0	2	384
HLD	49	0	3	384
HLD	50	0	4	384
HLD	51	0	5	768
HLD	52	0	2	384
TAP	54	0	1
TAP	54	192	0
TAP	54	192	1
TAP	55	0	6
TAP	55	192	6
TAP	55	192	7
STR	56	0	0
SSL	56	0	0	96	480	4
TAP	58	0	3
TAP	58	0	4
TAP	58	144	3
TAP	58	144	4
TAP	58	288	2
TAP	58	288	5
BRK	59	48	2
BRK	59	48	5
TAP	60	0	2
TAP	60	0	3
TAP	60	192	1
TAP	60	192	4
TAP	61	0	2
TAP	61	96	3
TAP	61	192	2
TAP	62	0	4
TAP	62	0	5
TAP	62	192	3
TAP	62	192	6
TAP	63	0	5
TAP	63	96	4
TAP	63	192	5
STR	64	0	3
SCL	64	0	3	96	672	4
TAP	66	192	3
TAP	66	192	4
TAP	67	0	2
TAP	67	0	5
TAP	67	192	1
TAP	67	192	6
HLD	68	0	3	192
TAP	68	192	5
HLD	69	0	4	192
TAP	69	192	2
HLD	70	0	2	192
HLD	70	192	5	192
TAP	71	0	3
TAP	71	192	3
TAP	71	192	4
HLD	72	0	2	384
HLD	72	0	5	384
TAP	73	192	1
TAP	73	192	6
TAP	74	0	0
TAP	74	0	7
TAP	74	144	0
TAP	74	144	7
TAP	74	288	1
TAP	74	288	6
TAP	75	48	1
TAP	75	48	6
BRK	75	192	1
BRK	75	192	6
TAP	76	0	6
TAP	76	0	7
TAP	76	192	0
TAP	76	192	5
TAP	77	0	6
TAP	77	96	7
TAP	77	192	6
TAP	78	0	0
TAP	78	0	1
TAP	78	192	2
TAP	78	192	7
TAP	79	0	1
TAP	79	96	0
TAP	79	192	1
STR	80	0	7
SCL	80	0	7	96	672	0
TAP	82	192	0
TAP	82	192	7
TAP	83	0	1
TAP	83	0	6
TAP	83	192	2
TAP	83	192	5
HLD	84	0	3	192
HLD	84	192	4	192
HLD	85	0	2	192
HLD	85	192	5	192
HLD	86	0	3	192
TAP	86	192	4
TAP	87	0	3
TAP	87	0	4
TAP	88	0	2
TAP	88	0	5
TAP	88	288	3
TAP	88	288	4
TAP	89	0	3
TAP	89	0	4
TAP	89	192	2
TAP	89	192	5
STR	90	0	3
SCL	90	0	3	96	288	0
STR	90	0	4
SCR	90	0	4	96	288	7
STR	92	0	1
SUR	92	0	1	96	480	2
STR	94	0	6
SUL	94	0	6	96	480	5
STR	96	0	1
SI_	96	0	1	96	288	4
STR	97	0	6
SI_	97	0	6	96	288	3
HLD	98	0	0	384
TAP	99	0	7
TAP	99	192	0
TAP	99	192	7
HLD	100	0	1	384
HLD	100	0	6	384
STR	102	0	0
SCR	102	0	0	96	288	3
STR	103	0	7
SCL	103	0	7	96	288	4
TAP	104	0	0
TAP	104	192	0
TAP	105	0	7
TAP	105	192	7
TAP	106	0	0
TAP	106	0	7
TAP	106	144	0
TAP	106	144	7
TAP	106	288	0
TAP	106	288	1
TAP	107	48	0
TAP	107	48	1
BRK	107	192	0
BRK	107	192	1
TAP	108	0	0
TAP	108	0	7
TAP	108	144	0
TAP	108	144	7
TAP	108	288	6
TAP	108	288	7
TAP	109	48	6
TAP	109	48	7
BRK	109	192	6
BRK	109	192	7
TAP	110	288	0
TAP	110	288	7
STR	111	0	0
SI_	111	0	0	96	192	3
STR	111	0	7
SI_	111	0	7	96	192	4
TAP	112	0	2
TAP	112	96	3
TAP	112	192	2
TAP	112	288	5
TAP	113	0	5
TAP	113	96	4
TAP	113	192	4
TAP	114	0	6
TAP	114	96	7
TAP	114	192	6
TAP	114	288	1
TAP	115	0	1
TAP	115	96	0
TAP	115	192	0
STR	116	0	2
SUR	116	0	2	96	672	5
TAP	118	192	6
TAP	118	192	7
TAP	119	0	0
TAP	119	0	1
TAP	119	192	0
TAP	119	192	7
HLD	120	0	7	192
TAP	120	192	6
HLD	121	0	0	192
TAP	121	192	1
HLD	122	0	2	192
HLD	122	192	3	192
HLD	123	0	4	192
HLD	123	192	5	576
HLD	124	0	2	384
TAP	125	192	1
TAP	125	192	6
TAP	126	0	0
TAP	126	0	7
TAP	126	144	0
TAP	126	144	7
TAP	126	288	1
TAP	126	288	6
TAP	127	48	1
TAP	127	48	6
BRK	127	192	2
BRK	127	192	5
TAP	128	0	5
TAP	128	96	4
TAP	128	192	5
TAP	128	288	2
TAP	129	0	2
TAP	129	96	3
TAP	129	192	3
TAP	130	0	1
TAP	130	96	0
TAP	130	192	1
TAP	130	288	6
TAP	131	0	6
TAP	131	96	7
TAP	131	192	7
STR	132	0	5
SUL	132	0	5	96	672	2
TAP	134	192	0
TAP	134	192	1
TAP	135	0	6
TAP	135	0	7
TAP	135	192	2
TAP	135	192	5
HLD	136	0	3	192
TAP	136	192	2
HLD	137	0	4	192
TAP	137	192	5
HLD	138	0	6	192
HLD	138	192	7	192
HLD	139	0	0	192
HLD	139	192	1	192
TAP	140	0	6
TAP	140	288	0
TAP	140	288	7
TAP	141	0	0
TAP	141	0	7
TAP	141	288	1
TAP	141	288	6
HLD	142	0	1	384
HLD	142	0	6	384
TAP	143	192	0
TAP	143	288	7
TAP	144	0	1
TAP	144	0	6
TAP	144	288	2
TAP	144	288	5
TAP	145	0	2
TAP	145	0	5
TAP	145	192	3
TAP	145	192	4
STR	146	0	3
SCL	146	0	3	96	288	0
STR	146	0	4
SCR	146	0	4	96	288	7
TAP	148	0	0
TAP	148	0	7
TAP	148	192	1
TAP	148	192	6
TAP	149	0	2
TAP	149	0	5
TAP	149	192	4
TAP	149	192	5
TAP	150	0	2
TAP	150	0	3
STR	150	192	0
SCR	150	192	0	96	480	3
STR	150	192	7
SCL	150	192	7	96	480	4

T_REC_TAP	256
T_REC_BRK	10
T_REC_XTP	0
T_REC_HLD	40
T_REC_XHO	0
T_REC_STR	21
T_REC_BST	0
T_REC_XST	0
T_REC_TTP	0
T_REC_THO	0
T_REC_SLD	21
T_REC_ALL	348
T_NUM_TAP	277
T_NUM_BRK	10
T_NUM_HLD	40
T_NUM_SLD	21
T_NUM_ALL	348
T_JUDGE_TAP	287
T_JUDGE_HLD	122
T_JUDGE_SLD	21
T_JUDGE_ALL	430
TTM_EACHPAIRS	90
TTM_SCR_TAP	138500
TTM_SCR_BRK	26000
TTM_SCR_HLD	40000
TTM_SCR_SLD	31500
TTM_SCR_ALL	236000
TTM_SCR_S	227950
TTM_SCR_SS	235000
TTM_RAT_ACV	10042

