VERSION	0.00.00	1.03.00
FES_MODE	0
BPM_DEF	256.000	256.000	256.000	256.000
MET_DEF	4	4
RESOLUTION	384
CLK_DEF	384
COMPATIBLE_CODE	MA2

BPM	0	0	256.000
MET	0	0	4	4

TAP	10	0	0
TAP	11	0	0
TAP	12	0	0
TAP	14	0	7
TAP	15	0	7
TAP	16	0	7
TAP	18	0	0
TAP	19	0	1
TAP	20	0	2
TAP	21	0	3
TAP	22	0	4
TAP	23	0	5
TAP	24	0	6
TAP	25	0	7
BRK	26	0	0
BRK	26	0	7
TAP	28	0	0
TAP	29	0	0
TAP	30	0	1
TAP	31	0	1
TAP	32	0	2
TAP	33	0	2
TAP	34	0	3
TAP	34	192	3
TAP	35	0	4
TAP	35	192	4
TAP	36	0	3
TAP	37	0	3
TAP	38	0	4
TAP	39	0	4
TAP	40	0	5
TAP	41	0	5
TAP	42	0	6
TAP	42	192	6
TAP	43	0	7
TAP	43	192	7
STR	44	0	0
SI_	44	0	0	96	672	4
STR	48	0	7
SI_	48	0	7	96	672	3
HLD	52	0	0	384
HLD	52	0	7	384
TAP	54	0	7
TAP	55	0	0
TAP	56	0	0
TAP	56	0	7
TAP	57	0	0
TAP	57	0	7
BRK	58	0	1
BRK	58	0	6
TAP	60	0	0
TAP	60	192	0
TAP	61	0	0
TAP	62	0	2
TAP	62	192	2
TAP	63	0	2
STR	64	0	4
SI_	64	0	4	96	672	7
TAP	67	0	0
TAP	67	0	7
TAP	68	0	6
TAP	68	192	6
TAP	69	0	5
TAP	70	0	4
TAP	70	192	4
TAP	71	0	3
TAP	72	0	2
TAP	72	192	2
TAP	73	0	1
TAP	73	192	1
TAP	74	0	0
BRK	75	0	0
BRK	75	0	7
TAP	76	0	7
TAP	76	192	7
TAP	77	0	7
TAP	78	0	5
TAP	78	192	5
TAP	79	0	5
STR	80	0	3
SI_	80	0	3	96	672	0
TAP	83	0	0
TAP	83	0	7
TAP	84	0	1
TAP	84	192	1
TAP	85	0	2
TAP	86	0	3
TAP	86	192	3
TAP	87	0	4
TAP	88	0	5
TAP	88	192	5
TAP	89	0	6
TAP	89	192	6
HLD	90	0	7	384
BRK	92	0	0
TAP	94	0	1
TAP	96	0	2
TAP	97	0	2
TAP	98	0	3
TAP	99	0	3
HLD	100	0	3	384
HLD	100	0	4	384
HLD	102	0	5	384
HLD	104	0	6	384
TAP	106	0	0
TAP	106	0	7
TAP	107	0	0
TAP	107	0	7
TAP	108	0	1
TAP	108	0	6
TAP	109	0	1
TAP	109	0	6
TAP	112	0	7
TAP	112	192	7
TAP	113	0	6
TAP	113	0	7
TAP	114	0	5
TAP	114	192	5
TAP	115	0	4
TAP	115	0	5
STR	116	0	3
SI_	116	0	3	96	672	0
STR	116	0	4
SI_	116	0	4	96	672	7
TAP	119	0	0
TAP	119	0	7
TAP	120	0	1
TAP	120	192	1
HLD	121	0	2	192
TAP	122	0	3
TAP	122	192	3
HLD	123	0	4	192
TAP	124	0	5
TAP	124	192	5
TAP	125	0	6
TAP	125	192	6
TAP	126	0	6
TAP	126	0	7
BRK	127	0	0
BRK	127	0	7
TAP	128	0	0
TAP	128	192	0
TAP	129	0	0
TAP	129	0	1
TAP	130	0	2
TAP	130	192	2
TAP	131	0	2
TAP	131	0	3
STR	132	0	3
SI_	132	0	3	96	672	0
STR	132	0	4
SI_	132	0	4	96	672	7
TAP	135	0	0
TAP	135	0	7
TAP	136	0	6
TAP	136	192	6
HLD	137	0	5	192
TAP	138	0	4
TAP	138	192	4
HLD	139	0	3	192
TAP	140	0	2
TAP	140	192	2
TAP	141	0	1
TAP	141	192	1
HLD	142	0	0	384
HLD	142	0	7	384
TAP	144	0	0
TAP	144	0	7
TAP	145	0	0
TAP	145	192	7
HLD	146	0	1	768
HLD	146	0	6	768
STR	150	0	0
SI_	150	0	0	96	672	4

T_REC_TAP	132
T_REC_BRK	9
T_REC_XTP	0
T_REC_HLD	15
T_REC_XHO	0
T_REC_STR	9
T_REC_BST	0
T_REC_XST	0
T_REC_TTP	0
T_REC_THO	0
T_REC_SLD	9
T_REC_ALL	174
T_NUM_TAP	141
T_NUM_BRK	9
T_NUM_HLD	15
T_NUM_SLD	9
T_NUM_ALL	174
T_JUDGE_TAP	150
T_JUDGE_HLD	60
T_JUDGE_SLD	9
T_JUDGE_ALL	219
TTM_EACHPAIRS	26
TTM_SCR_TAP	70500
TTM_SCR_BRK	23400
TTM_SCR_HLD	15000
TTM_SCR_SLD	13500
TTM_SCR_ALL	122400
TTM_SCR_S	117900
TTM_SCR_SS	121500
TTM_RAT_ACV	10074

