VERSION	0.00.00	1.03.00
FES_MODE	0
BPM_DEF	210.000	210.000	210.000	210.000
MET_DEF	4	4
RESOLUTION	384
CLK_DEF	384
COMPATIBLE_CODE	MA2

BPM	0	0	210.000
MET	0	0	4	4

HLD	2	0	2	672
TAP	2	96	3
TAP	2	192	3
TAP	2	288	3
TAP	3	0	3
TAP	3	96	3
TAP	3	192	3
TAP	3	288	3
TAP	3	336	4
HLD	4	0	5	672
TAP	4	96	4
TAP	4	192	4
TAP	4	288	4
TAP	5	0	4
TAP	5	96	4
TAP	5	192	4
TAP	5	288	4
TAP	5	336	3
HLD	6	0	2	576
TAP	6	96	3
TAP	6	192	3
TAP	6	288	3
TAP	7	0	3
TAP	7	96	3
TAP	7	192	3
TAP	7	240	4
TAP	7	288	5
TAP	7	336	1
TAP	7	336	6
TAP	9	0	0
TAP	9	0	1
TAP	9	96	6
TAP	9	96	7
TAP	9	192	5
TAP	9	240	4
TAP	9	288	3
TAP	9	336	2
STR	10	0	1
SI_	10	0	1	96	72	4
STR	10	144	0
SI_	10	144	0	96	72	5
TAP	10	288	2
STR	11	0	2
SI_	11	0	2	96	72	7
STR	11	144	3
SI_	11	144	3	96	72	6
TAP	11	288	7
STR	12	0	7
SI_	12	0	7	96	72	2
STR	12	144	6
SI_	12	144	6	96	72	3
TAP	12	288	4
STR	13	0	4
SI_	13	0	4	96	72	1
STR	13	144	5
SI_	13	144	5	96	72	0
TAP	13	288	1
STR	14	0	1
SI_	14	0	1	96	48	3
STR	14	144	0
SI_	14	144	0	96	72	4
TAP	14	288	2
STR	15	0	2
SI_	15	0	2	96	48	0
STR	15	144	3
SI_	15	144	3	96	72	7
TAP	15	288	5
STR	16	0	5
SI_	16	0	5	96	48	7
STR	16	144	4
SI_	16	144	4	96	72	0
TAP	16	288	6
STR	17	0	6
SI_	17	0	6	96	48	4
STR	17	144	7
SI_	17	144	7	96	72	3
STR	17	288	0
SCR	17	288	0	96	288	7
TAP	19	48	0
TAP	19	96	7
TAP	19	144	1
STR	19	192	6
SI_	19	192	6	96	48	1
TAP	19	288	2
HLD	19	336	2	96
HLD	20	48	3	96
HLD	20	144	4	96
TAP	20	240	5
TAP	20	288	6
TAP	20	336	0
TAP	20	336	7
STR	21	48	1
SI_	21	48	1	96	48	6
STR	21	96	5
SI_	21	96	5	96	48	2
TAP	21	288	6
HLD	21	336	6	96
HLD	22	48	7	96
STR	22	144	0
SUL	22	144	0	96	144	7
TAP	23	48	5
TAP	23	96	4
TAP	23	144	3
TAP	23	192	2
TAP	23	288	6
STR	23	336	6
SCR	23	336	6	96	96	1
STR	24	48	1
SI_	24	48	1	96	96	5
STR	24	144	5
SI_	24	144	5	96	48	2
TAP	24	240	2
TAP	24	288	1
TAP	24	336	0
STR	25	48	0
SI_	25	48	0	96	48	4
STR	25	96	4
SI_	25	96	4	96	48	0
TAP	25	288	7
TAP	25	336	0
TAP	26	0	7
TAP	26	48	0
TAP	26	72	1
TAP	26	96	2
TAP	26	144	4
TAP	26	192	3
TAP	26	240	4
TAP	26	288	3
TAP	26	336	7
TAP	26	360	6
TAP	27	0	5
TAP	27	48	3
TAP	27	96	4
TAP	27	144	3
TAP	27	192	4
TAP	27	240	2
TAP	27	288	5
TAP	27	336	2
TAP	28	0	5
TAP	28	48	6
TAP	28	96	7
STR	28	144	0
SI_	28	144	0	96	48	4
TAP	28	240	0
STR	28	240	6
SI_	28	240	6	96	48	2
TAP	28	336	1
TAP	28	336	6
TAP	29	48	0
TAP	29	96	1
TAP	29	144	2
TAP	29	192	3
TAP	29	240	4
TAP	29	288	5
TAP	29	336	6
STR	30	0	7
SI_	30	0	7	96	48	3
TAP	30	96	7
STR	30	144	0
SCR	30	144	0	96	48	3
STR	30	240	0
SCL	30	240	0	96	48	5
TAP	30	336	0
TAP	31	48	4
TAP	31	96	3
TAP	31	144	4
TAP	31	192	3
TAP	31	240	5
TAP	31	288	2
TAP	31	336	5
TAP	32	0	2
TAP	32	48	1
TAP	32	96	0
STR	32	144	7
SI_	32	144	7	96	48	3
STR	32	240	1
SI_	32	240	1	96	48	5
TAP	32	240	7
TAP	32	336	1
TAP	32	336	6
TAP	33	48	7
TAP	33	96	6
TAP	33	144	5
TAP	33	192	3
TAP	33	240	4
TAP	33	288	3
TAP	33	336	4
TAP	34	0	2
TAP	34	48	1
TAP	34	96	0
STR	34	144	7
SI_	34	144	7	96	48	3
TAP	34	240	3
TAP	34	240	7
HLD	35	0	2	144
TAP	35	144	3
TAP	35	288	3
TAP	35	288	4
HLD	36	0	5	144
TAP	36	144	4
TAP	36	288	3
TAP	36	288	4
HLD	37	0	1	144
TAP	37	144	2
TAP	37	288	3
TAP	37	288	4
HLD	38	0	6	144
TAP	38	144	5
TAP	38	288	3
TAP	38	288	4
HLD	39	0	0	96
TAP	39	96	1
TAP	39	144	2
TAP	39	240	2
TAP	39	288	3
HLD	40	0	7	96
TAP	40	96	6
TAP	40	144	5
TAP	40	240	5
TAP	40	288	4
TAP	41	0	0
TAP	41	0	7
TAP	41	96	1
TAP	41	144	2
TAP	41	240	6
TAP	41	288	5
TAP	42	0	0
TAP	42	24	7
TAP	42	48	1
TAP	42	72	6
TAP	42	96	0
TAP	42	120	7
TAP	42	144	1
STR	42	168	6
SCR	42	168	6	96	72	1
BRK	42	192	0
TAP	43	0	0
TAP	43	0	7
TAP	43	96	1
TAP	43	144	3
TAP	43	144	4
TAP	43	240	6
TAP	43	288	3
TAP	43	288	4
TAP	43	336	2
TAP	44	0	1
TAP	44	48	0
TAP	44	96	7
TAP	44	144	1
TAP	44	144	6
TAP	44	240	5
TAP	44	288	4
TAP	44	336	3
TAP	44	336	6
TAP	45	48	0
TAP	45	48	1
STR	45	96	0
SI_	45	96	0	96	48	5
STR	45	96	1
SI_	45	96	1	96	48	4
TAP	45	192	0
TAP	45	192	1
TAP	45	288	3
TAP	45	336	3
TAP	45	336	4
TAP	46	48	2
TAP	46	96	1
TAP	46	144	0
STR	46	192	6
SI_	46	192	6	96	48	3
STR	46	192	7
SI_	46	192	7	96	48	2
TAP	46	288	6
TAP	46	288	7
TAP	47	0	1
TAP	47	0	4
TAP	47	96	5
TAP	47	144	3
TAP	47	144	6
TAP	47	240	2
TAP	47	288	1
TAP	47	288	4
TAP	47	336	5
TAP	48	0	6
TAP	48	48	7
TAP	48	96	0
TAP	48	144	1
TAP	48	144	6
TAP	48	240	3
TAP	48	288	4
TAP	48	336	2
TAP	48	336	5
TAP	49	48	0
TAP	49	48	7
STR	49	96	0
SI_	49	96	0	96	48	4
STR	49	96	7
SI_	49	96	7	96	48	3
TAP	49	192	0
TAP	49	192	7
TAP	49	288	2
TAP	49	288	5
TAP	49	336	2
TAP	49	336	5
TAP	50	48	0
TAP	50	48	7
TAP	50	96	1
TAP	50	96	6
TAP	50	144	2
TAP	50	144	5
STR	50	192	3
SI_	50	192	3	96	48	7
STR	50	192	4
SI_	50	192	4	96	48	0
STR	50	288	3
SCL	50	288	3	96	336	4
STR	50	288	4
SCR	50	288	4	96	336	3
TAP	52	48	3
TAP	52	48	4
STR	52	144	0
SI_	52	144	0	96	48	3
STR	52	144	1
SI_	52	144	1	96	48	6
HLD	53	0	5	144
TAP	53	96	4
HLD	53	144	4	144
TAP	53	240	5
TAP	53	288	5
TAP	53	336	3
TAP	53	336	6
TAP	54	48	1
TAP	54	48	4
STR	54	144	6
SI_	54	144	6	96	48	1
STR	54	144	7
SI_	54	144	7	96	48	4
HLD	55	0	2	144
TAP	55	96	3
HLD	55	144	3	144
TAP	55	240	2
TAP	55	288	2
TAP	55	336	1
TAP	55	336	4
TAP	56	48	3
TAP	56	48	6
STR	56	144	0
SCR	56	144	0	96	72	3
STR	56	144	7
SCL	56	144	7	96	72	4
HLD	57	0	0	144
TAP	57	96	7
HLD	57	144	7	144
TAP	57	240	0
TAP	57	288	0
TAP	57	336	1
STR	57	336	6
SUL	57	336	6	96	96	1
STR	58	48	2
SCL	58	48	2	96	144	5
BRK	59	0	0
BRK	59	0	7
TAP	59	96	6
TAP	59	144	7
TAP	59	240	1
TAP	59	288	0
TAP	60	0	2
TAP	60	48	3
TAP	60	96	2
TAP	60	144	3
TAP	60	192	2
HLD	60	240	3	144
TAP	60	336	7
TAP	61	0	7
TAP	61	96	5
TAP	61	144	4
TAP	61	240	2
TAP	61	288	3
TAP	62	0	5
TAP	62	48	4
TAP	62	96	5
TAP	62	144	4
TAP	62	192	5
HLD	62	240	4	144
TAP	62	336	0
TAP	63	0	0
TAP	63	96	2
TAP	63	144	3
TAP	63	240	5
TAP	63	288	4
TAP	64	0	6
TAP	64	48	7
TAP	64	96	6
TAP	64	144	7
TAP	64	192	6
HLD	64	240	7	144
TAP	64	336	3
TAP	65	0	3
TAP	65	96	1
TAP	65	144	0
TAP	65	240	6
TAP	65	288	7
TAP	66	0	1
TAP	66	48	0
STR	66	96	1
SSR	66	96	1	96	144	5
TAP	66	144	0
HLD	67	0	4	144
TAP	67	144	5
TAP	67	288	3
TAP	67	288	6
HLD	68	0	7	144
TAP	68	144	0
TAP	68	288	1
TAP	68	288	6
HLD	69	0	3	144
TAP	69	144	2
TAP	69	288	1
TAP	69	288	4
HLD	70	0	0	144
TAP	70	144	7
TAP	70	288	1
TAP	70	288	6
HLD	71	0	5	96
TAP	71	96	6
TAP	71	144	7
TAP	71	240	7
TAP	71	288	0
HLD	72	0	2	96
TAP	72	96	1
TAP	72	144	0
TAP	72	240	0
TAP	72	288	7
TAP	73	0	3
TAP	73	0	4
TAP	73	96	0
TAP	73	144	2
TAP	73	240	7
TAP	73	288	5
TAP	74	0	1
TAP	74	24	6
TAP	74	48	0
TAP	74	72	7
TAP	74	96	1
TAP	74	120	6
TAP	74	144	0
TAP	74	168	7
BRK	74	192	1
BRK	74	192	6
TAP	75	288	3
TAP	75	288	4
TAP	76	0	0
TAP	76	0	7
TAP	76	96	6
TAP	76	144	3
TAP	76	144	4
TAP	76	240	1
TAP	76	288	3
TAP	76	288	4
TAP	76	336	5
TAP	77	0	6
TAP	77	48	7
TAP	77	96	0
TAP	77	144	1
TAP	77	144	6
TAP	77	240	2
TAP	77	288	3
TAP	77	336	1
TAP	77	336	4
TAP	78	48	6
TAP	78	48	7
STR	78	96	6
SI_	78	96	6	96	48	3
STR	78	96	7
SI_	78	96	7	96	48	2
TAP	78	192	6
TAP	78	192	7
TAP	78	288	4
TAP	78	336	3
TAP	78	336	4
TAP	79	48	5
TAP	79	96	6
TAP	79	144	7
STR	79	192	0
SI_	79	192	0	96	48	5
STR	79	192	1
SI_	79	192	1	96	48	4
TAP	79	288	0
TAP	79	288	1
TAP	80	0	3
TAP	80	0	6
TAP	80	96	2
TAP	80	144	1
TAP	80	144	4
TAP	80	240	5
TAP	80	288	3
TAP	80	288	6
TAP	80	336	2
TAP	81	0	1
TAP	81	48	0
TAP	81	96	7
TAP	81	144	1
TAP	81	144	6
TAP	81	240	4
TAP	81	288	3
TAP	81	336	2
TAP	81	336	5
TAP	82	48	0
TAP	82	48	7
STR	82	96	0
SI_	82	96	0	96	48	5
STR	82	96	7
SI_	82	96	7	96	48	2
TAP	82	192	0
TAP	82	192	7
TAP	82	288	3
TAP	82	288	4
TAP	82	336	3
TAP	82	336	4
STR	83	192	3
SI_	83	192	3	96	48	6
STR	83	192	4
SI_	83	192	4	96	48	1
TAP	84	0	0
TAP	84	0	7
TAP	84	96	1
TAP	84	144	4
TAP	84	144	5
TAP	84	240	6
TAP	84	288	2
TAP	84	288	3
TAP	84	336	1
TAP	85	0	0
TAP	85	48	7
TAP	85	96	6
TAP	85	144	0
TAP	85	144	5
TAP	85	240	1
TAP	85	288	0
TAP	85	336	2
TAP	85	336	7
TAP	86	48	4
TAP	86	48	5
STR	86	96	4
SI_	86	96	4	96	48	0
STR	86	96	5
SI_	86	96	5	96	48	1
TAP	86	192	4
TAP	86	192	5
TAP	86	288	7
TAP	86	336	0
TAP	86	336	7
TAP	87	48	6
TAP	87	96	5
TAP	87	144	4
STR	87	192	2
SI_	87	192	2	96	48	6
STR	87	192	3
SI_	87	192	3	96	48	7
TAP	87	288	2
TAP	87	288	3
TAP	88	0	0
TAP	88	0	5
TAP	88	96	1
TAP	88	144	2
TAP	88	144	7
TAP	88	240	6
TAP	88	288	0
TAP	88	288	5
TAP	88	336	1
TAP	89	0	4
TAP	89	48	3
TAP	89	96	6
TAP	89	144	0
TAP	89	144	7
STR	89	240	2
SCL	89	240	2	96	96	6
TAP	89	288	3
TAP	89	336	2
STR	90	48	5
SCR	90	48	5	96	96	1
TAP	90	96	4
TAP	90	144	5
STR	90	240	3
SCL	90	240	3	96	192	4
TAP	90	288	4
TAP	90	336	3
TAP	91	192	3
TAP	91	192	4
STR	91	288	0
SCR	91	288	0	96	192	7
STR	91	288	7
SCL	91	288	7	96	192	0
TAP	92	288	0
TAP	92	288	7
STR	92	336	0
SI_	92	336	0	96	48	3
TAP	92	336	7
STR	93	48	0
SI_	93	48	0	96	48	5
STR	93	144	0
SI_	93	144	0	96	48	4
TAP	93	240	0
HLD	94	0	5	144
TAP	94	96	4
HLD	94	144	4	96
TAP	94	240	5
TAP	94	288	3
TAP	94	288	6
TAP	94	336	2
STR	94	336	7
SI_	94	336	7	96	48	4
STR	95	48	7
SI_	95	48	7	96	48	2
STR	95	144	7
SI_	95	144	7	96	48	3
TAP	95	240	7
HLD	96	0	2	144
TAP	96	96	3
HLD	96	144	3	96
TAP	96	240	2
TAP	96	288	1
TAP	96	288	4
STR	96	336	0
SCR	96	336	0	96	48	3
TAP	96	336	5
STR	97	48	0
SCL	97	48	0	96	48	5
STR	97	144	0
SI_	97	144	0	96	48	4
TAP	97	240	0
HLD	98	0	7	144
TAP	98	96	0
HLD	98	144	0	96
TAP	98	240	7
TAP	98	288	1
TAP	98	288	6
TAP	98	336	2
STR	98	336	5
SUL	98	336	5	96	96	0
STR	99	48	2
SUR	99	48	2	96	96	7
HLD	100	0	4	144
TAP	100	96	3
HLD	100	144	3	96
TAP	100	240	4
TAP	100	288	2
TAP	100	288	5
STR	100	336	1
SI_	100	336	1	96	48	3
TAP	100	336	6
TAP	101	48	1
STR	101	48	7
SI_	101	48	7	96	48	5
STR	101	144	0
SI_	101	144	0	96	48	4
TAP	101	144	7
BRK	101	240	0
HLD	102	0	6	144
TAP	102	96	7
HLD	102	144	7	96
TAP	102	240	6
TAP	102	288	0
TAP	102	288	5
TAP	102	336	1
STR	102	336	6
SI_	102	336	6	96	48	4
STR	103	48	0
SI_	103	48	0	96	48	2
TAP	103	48	6
TAP	103	144	0
STR	103	144	7
SI_	103	144	7	96	48	3
BRK	103	240	7
HLD	104	0	1	144
TAP	104	96	0
HLD	104	144	0	96
TAP	104	240	1
TAP	104	288	2
TAP	104	288	7
STR	104	336	1
SI_	104	336	1	96	48	3
TAP	104	336	6
TAP	105	48	1
STR	105	48	7
SI_	105	48	7	96	48	5
STR	105	144	0
SI_	105	144	0	96	48	4
TAP	105	144	7
BRK	105	240	0
HLD	106	0	7	144
TAP	106	96	0
HLD	106	144	0	96
TAP	106	240	7
TAP	106	288	1
TAP	106	288	6
STR	106	336	2
SUL	106	336	2	96	72	5
TAP	106	336	5
STR	107	48	4
SCR	107	48	4	96	192	3
BRK	108	0	0
BRK	108	0	7
TAP	108	96	1
TAP	108	144	5
TAP	108	192	2
TAP	108	288	3
TAP	108	336	3
TAP	109	48	4
HLD	109	144	5	96
TAP	109	240	4
TAP	109	288	3
TAP	109	336	2
TAP	110	96	2
TAP	110	144	6
TAP	110	192	3
TAP	110	288	4
TAP	110	336	4
TAP	111	48	5
TAP	111	144	6
TAP	111	240	7
TAP	111	288	0
TAP	111	336	1
TAP	112	96	6
TAP	112	144	2
TAP	112	192	5
TAP	112	288	4
TAP	112	336	4
TAP	113	48	3
HLD	113	144	2	96
TAP	113	240	3
TAP	113	288	4
TAP	113	336	5
TAP	114	96	5
TAP	114	144	1
TAP	114	192	4
TAP	114	288	3
TAP	114	336	3
TAP	115	48	2
TAP	115	144	1
TAP	115	240	0
TAP	115	336	4

T_REC_TAP	501
T_REC_BRK	10
T_REC_XTP	0
T_REC_HLD	45
T_REC_XHO	0
T_REC_STR	93
T_REC_BST	0
T_REC_XST	0
T_REC_TTP	0
T_REC_THO	0
T_REC_SLD	93
T_REC_ALL	742
T_NUM_TAP	594
T_NUM_BRK	10
T_NUM_HLD	45
T_NUM_SLD	93
T_NUM_ALL	742
T_JUDGE_TAP	604
T_JUDGE_HLD	148
T_JUDGE_SLD	93
T_JUDGE_ALL	845
TTM_EACHPAIRS	119
TTM_SCR_TAP	297000
TTM_SCR_BRK	26000
TTM_SCR_HLD	45000
TTM_SCR_SLD	139500
TTM_SCR_ALL	507500
TTM_SCR_S	491350
TTM_SCR_SS	506500
TTM_RAT_ACV	10019

