VERSION	0.00.00	1.03.00
FES_MODE	0
BPM_DEF	210.000	210.000	210.000	210.000
MET_DEF	4	4
RESOLUTION	384
CLK_DEF	384
COMPATIBLE_CODE	MA2

BPM	0	0	210.000
MET	0	0	4	4

TAP	2	0	2
TAP	2	0	6
TAP	2	96	0
TAP	2	192	0
TAP	2	288	5
TAP	2	336	4
TAP	3	48	6
TAP	3	144	6
TAP	3	240	2
TAP	3	288	3
TAP	4	0	1
TAP	4	0	5
TAP	4	96	7
TAP	4	192	7
TAP	4	288	2
TAP	4	336	3
TAP	5	48	1
TAP	5	144	1
TAP	5	240	5
TAP	5	288	4
TAP	6	0	1
TAP	6	0	5
TAP	6	96	3
TAP	6	192	3
TAP	6	288	6
TAP	6	336	7
TAP	7	48	1
TAP	7	48	6
TAP	7	144	3
TAP	7	144	4
TAP	7	240	3
TAP	7	288	4
TAP	8	0	2
TAP	8	0	6
TAP	8	96	4
TAP	8	192	4
TAP	8	288	1
TAP	8	336	0
TAP	9	48	2
TAP	9	48	5
TAP	9	144	0
TAP	9	144	7
TAP	9	240	7
TAP	9	288	0
HLD	10	0	5	144
HLD	10	144	4	144
TAP	10	288	3
HLD	11	0	2	144
HLD	11	144	3	144
TAP	11	288	4
HLD	12	0	6	144
HLD	12	144	7	144
TAP	12	288	0
HLD	13	0	1	144
HLD	13	144	0	144
TAP	13	288	7
HLD	14	0	5	144
TAP	14	144	4
TAP	14	288	3
TAP	14	288	6
HLD	15	0	2	144
TAP	15	144	3
TAP	15	288	1
TAP	15	288	4
TAP	16	0	6
TAP	16	0	7
TAP	16	144	0
TAP	16	144	5
TAP	16	288	1
TAP	16	288	4
TAP	17	0	0
TAP	17	0	1
TAP	17	144	2
TAP	17	144	7
TAP	17	288	3
STR	17	288	6
SCL	17	288	6	96	288	1
TAP	19	0	2
TAP	19	0	6
TAP	19	96	0
TAP	19	192	5
TAP	19	288	2
TAP	19	336	3
TAP	20	48	0
TAP	20	144	0
TAP	20	144	1
TAP	20	240	5
TAP	20	288	4
TAP	21	0	1
TAP	21	0	4
TAP	21	96	2
TAP	21	192	5
TAP	21	288	3
TAP	21	336	4
TAP	22	48	3
TAP	22	48	6
BRK	22	144	3
BRK	22	144	4
BRK	22	240	0
BRK	22	240	7
TAP	23	0	1
TAP	23	0	5
TAP	23	96	7
TAP	23	192	2
TAP	23	288	5
TAP	23	336	4
TAP	24	48	7
TAP	24	144	6
TAP	24	144	7
TAP	24	240	2
TAP	24	288	3
TAP	25	0	2
TAP	25	0	6
TAP	25	96	1
TAP	25	192	6
TAP	25	288	0
TAP	25	336	7
TAP	26	0	0
TAP	26	48	7
TAP	26	144	1
TAP	26	144	6
TAP	26	240	1
TAP	26	240	6
TAP	27	48	2
TAP	27	96	3
TAP	27	192	2
TAP	27	192	4
TAP	27	288	3
TAP	27	288	5
TAP	28	0	4
TAP	28	0	6
TAP	28	96	6
TAP	28	144	7
TAP	28	240	1
TAP	28	240	7
TAP	28	336	0
TAP	28	336	2
TAP	29	48	5
TAP	29	96	4
TAP	29	192	3
TAP	29	192	5
TAP	29	288	2
TAP	29	288	4
TAP	30	0	1
TAP	30	0	3
TAP	30	96	1
TAP	30	144	0
TAP	30	240	0
TAP	30	240	6
TAP	30	336	5
TAP	30	336	7
TAP	31	48	5
TAP	31	96	4
TAP	31	192	3
TAP	31	192	6
TAP	31	288	1
TAP	31	288	4
TAP	32	0	0
TAP	32	0	7
TAP	32	96	6
TAP	32	144	7
TAP	32	240	4
TAP	32	240	5
TAP	32	336	1
TAP	32	336	3
TAP	33	48	2
TAP	33	96	3
TAP	33	192	1
TAP	33	192	4
TAP	33	288	3
TAP	33	288	6
TAP	34	0	0
TAP	34	0	7
TAP	34	96	1
TAP	34	144	0
BRK	34	240	3
BRK	34	240	4
HLD	35	0	0	288
TAP	35	288	1
HLD	36	0	1	288
TAP	36	288	2
HLD	37	0	2	288
TAP	37	288	3
HLD	38	0	3	288
TAP	38	288	4
HLD	39	0	4	288
TAP	39	288	5
HLD	40	0	5	288
TAP	40	288	6
HLD	41	0	6	288
TAP	41	288	7
BRK	42	0	0
BRK	42	0	7
HLD	43	0	6	144
HLD	43	144	5	144
TAP	43	288	4
TAP	44	0	2
TAP	44	0	3
TAP	44	96	2
TAP	44	144	3
TAP	44	240	1
TAP	44	288	0
TAP	45	0	3
TAP	45	0	6
TAP	45	96	4
TAP	45	96	5
TAP	45	192	1
TAP	45	192	4
TAP	45	288	2
TAP	45	336	3
TAP	46	0	2
TAP	46	96	4
TAP	46	96	6
TAP	46	192	1
TAP	46	192	3
BRK	46	288	0
BRK	46	288	7
HLD	47	0	2	144
HLD	47	144	1	144
TAP	47	288	0
TAP	48	0	4
TAP	48	0	5
TAP	48	96	5
TAP	48	144	4
TAP	48	240	6
TAP	48	288	7
TAP	49	0	1
TAP	49	0	4
TAP	49	96	2
TAP	49	96	3
TAP	49	192	3
TAP	49	192	6
TAP	49	288	5
TAP	49	336	4
TAP	50	0	5
TAP	50	96	1
TAP	50	96	3
TAP	50	192	4
TAP	50	192	6
BRK	50	288	0
BRK	50	288	7
HLD	51	0	5	144
HLD	51	144	4	144
HLD	51	288	3	144
TAP	52	48	2
TAP	52	144	0
TAP	52	144	1
TAP	52	240	2
TAP	52	240	7
HLD	53	0	2	144
HLD	53	144	3	144
HLD	53	288	4	144
TAP	54	48	5
TAP	54	144	6
TAP	54	144	7
TAP	54	240	0
TAP	54	240	5
HLD	55	0	5	144
HLD	55	144	6	144
HLD	55	288	7	144
TAP	56	48	0
TAP	56	144	2
TAP	56	144	3
TAP	56	240	0
TAP	56	240	5
HLD	57	0	2	144
HLD	57	144	1	144
HLD	57	288	0	144
TAP	58	48	7
BRK	58	144	3
BRK	58	144	4
STR	59	0	1
SI_	59	0	1	96	96	4
STR	59	192	0
SI_	59	192	0	96	96	5
TAP	60	0	1
TAP	60	96	1
TAP	60	192	2
TAP	60	192	7
STR	61	0	6
SI_	61	0	6	96	96	3
STR	61	192	7
SI_	61	192	7	96	96	2
TAP	62	0	6
TAP	62	96	6
TAP	62	192	0
TAP	62	192	5
STR	63	0	1
SI_	63	0	1	96	96	4
STR	63	192	7
SI_	63	192	7	96	96	3
TAP	64	0	1
TAP	64	96	5
TAP	64	192	3
TAP	64	192	7
STR	65	0	6
SI_	65	0	6	96	96	3
STR	65	192	0
SI_	65	192	0	96	96	4
TAP	66	0	6
TAP	66	96	2
TAP	66	192	0
TAP	66	192	4
HLD	67	0	2	672
HLD	67	0	5	288
HLD	68	0	0	672
HLD	69	0	7	672
HLD	70	0	6	672
HLD	71	0	1	672
HLD	72	0	3	576
HLD	73	0	4	192
TAP	73	288	3
TAP	73	288	4
BRK	74	0	1
BRK	74	0	6
TAP	75	288	3
TAP	75	288	4
HLD	76	0	6	144
HLD	76	144	3	144
TAP	76	288	2
TAP	77	0	0
TAP	77	0	1
TAP	77	96	6
TAP	77	144	7
TAP	77	240	1
TAP	77	288	0
HLD	78	0	5	96
TAP	78	96	4
HLD	78	192	2	96
TAP	78	288	3
TAP	78	336	2
TAP	79	0	3
TAP	79	96	6
TAP	79	144	7
TAP	79	192	6
TAP	79	288	1
TAP	79	288	4
HLD	80	0	1	144
HLD	80	144	4	144
TAP	80	288	5
TAP	81	0	6
TAP	81	0	7
TAP	81	96	1
TAP	81	144	0
TAP	81	240	6
TAP	81	288	7
HLD	82	0	2	96
TAP	82	96	3
HLD	82	192	5	96
TAP	82	288	4
TAP	82	336	5
TAP	83	0	4
TAP	83	96	1
TAP	83	144	0
TAP	83	192	1
BRK	83	288	3
BRK	83	288	6
STR	84	0	2
SI_	84	0	2	96	48	4
STR	84	144	6
SI_	84	144	6	96	48	3
TAP	84	288	0
TAP	85	0	0
TAP	85	0	1
TAP	85	96	6
TAP	85	144	7
TAP	85	240	2
TAP	85	288	3
HLD	86	0	5	96
TAP	86	96	7
HLD	86	192	2	96
TAP	86	288	0
TAP	86	336	1
TAP	87	0	0
TAP	87	96	5
TAP	87	144	4
TAP	87	192	5
TAP	87	288	0
TAP	87	288	2
STR	88	0	5
SI_	88	0	5	96	48	3
STR	88	144	1
SI_	88	144	1	96	48	4
TAP	88	288	6
TAP	89	0	6
TAP	89	0	7
TAP	89	96	4
TAP	89	144	3
TAP	89	192	4
STR	89	288	3
SCL	89	288	3	96	96	7
STR	90	96	4
SCR	90	96	4	96	96	0
STR	90	288	3
SUL	90	288	3	96	288	0
HLD	92	0	4	96
HLD	92	0	5	96
HLD	92	144	3	96
HLD	92	144	6	96
TAP	92	288	2
TAP	92	288	7
TAP	93	48	0
TAP	93	48	1
TAP	93	144	0
TAP	93	144	7
TAP	93	240	6
TAP	93	240	7
HLD	94	0	6	96
HLD	94	0	7	96
HLD	94	144	0	96
HLD	94	144	5	96
TAP	94	288	1
TAP	94	288	4
TAP	95	48	2
TAP	95	48	3
TAP	95	144	3
TAP	95	144	4
TAP	95	240	4
TAP	95	240	5
HLD	96	0	2	96
HLD	96	0	3	96
HLD	96	144	1	96
HLD	96	144	4	96
TAP	96	288	0
TAP	96	288	5
TAP	97	48	6
TAP	97	48	7
TAP	97	144	0
TAP	97	144	7
TAP	97	240	0
TAP	97	240	1
HLD	98	0	0	96
HLD	98	0	1	96
HLD	98	144	2	96
HLD	98	144	7	96
TAP	98	288	3
TAP	98	288	6
TAP	99	48	4
TAP	99	48	5
BRK	99	144	3
BRK	99	144	4
STR	100	0	2
SI_	100	0	2	96	48	5
STR	100	144	7
SI_	100	144	7	96	48	4
HLD	100	288	2	144
TAP	101	48	3
TAP	101	144	3
TAP	101	144	4
TAP	101	240	4
TAP	101	240	5
STR	102	0	5
SI_	102	0	5	96	48	2
STR	102	144	0
SI_	102	144	0	96	48	3
HLD	102	288	5	144
TAP	103	48	4
TAP	103	144	3
TAP	103	144	4
TAP	103	240	2
TAP	103	240	3
STR	104	0	6
SI_	104	0	6	96	48	1
STR	104	144	3
SI_	104	144	3	96	48	0
HLD	104	288	6	144
TAP	105	48	7
TAP	105	144	0
TAP	105	144	7
TAP	105	240	0
TAP	105	240	1
STR	106	0	1
SI_	106	0	1	96	48	6
STR	106	144	4
SI_	106	144	4	96	48	7
HLD	106	288	1	144
TAP	107	48	0
BRK	107	144	0
BRK	107	144	7
TAP	108	0	2
TAP	108	0	3
TAP	108	96	2
TAP	108	192	3
TAP	108	288	1
TAP	109	0	7
TAP	109	96	5
TAP	109	192	3
TAP	109	288	2
TAP	109	288	4
TAP	110	0	4
TAP	110	0	5
TAP	110	96	5
TAP	110	192	4
TAP	110	288	6
TAP	111	0	0
TAP	111	96	2
TAP	111	192	4
TAP	111	288	3
TAP	111	288	5
TAP	112	0	1
TAP	112	0	4
TAP	112	96	2
TAP	112	192	3
TAP	112	288	1
TAP	113	0	3
TAP	113	96	5
TAP	113	192	7
TAP	113	288	1
TAP	114	0	3
TAP	114	0	6
TAP	114	96	5
TAP	114	192	4
TAP	114	288	6
TAP	115	0	4
TAP	115	96	2
TAP	115	192	0
TAP	115	288	6

T_REC_TAP	376
T_REC_BRK	22
T_REC_XTP	0
T_REC_HLD	71
T_REC_XHO	0
T_REC_STR	24
T_REC_BST	0
T_REC_XST	0
T_REC_TTP	0
T_REC_THO	0
T_REC_SLD	24
T_REC_ALL	517
T_NUM_TAP	400
T_NUM_BRK	22
T_NUM_HLD	71
T_NUM_SLD	24
T_NUM_ALL	517
T_JUDGE_TAP	422
T_JUDGE_HLD	280
T_JUDGE_SLD	24
T_JUDGE_ALL	726
TTM_EACHPAIRS	119
TTM_SCR_TAP	200000
TTM_SCR_BRK	57200
TTM_SCR_HLD	71000
TTM_SCR_SLD	36000
TTM_SCR_ALL	364200
TTM_SCR_S	351150
TTM_SCR_SS	362000
TTM_RAT_ACV	10060

