VERSION	0.00.00	1.03.00
FES_MODE	0
BPM_DEF	210.000	210.000	210.000	210.000
MET_DEF	4	4
RESOLUTION	384
CLK_DEF	384
COMPATIBLE_CODE	MA2

BPM	0	0	210.000
MET	0	0	4	4

TAP	2	0	0
TAP	3	0	0
TAP	4	0	1
TAP	5	0	1
TAP	6	0	2
TAP	7	0	2
TAP	8	0	3
BRK	9	0	3
BRK	9	0	4
STR	10	0	4
SI_	10	0	4	96	288	7
TAP	11	192	1
TAP	11	192	6
STR	12	0	3
SI_	12	0	3	96	288	0
TAP	13	192	1
TAP	13	192	6
STR	14	0	5
SI_	14	0	5	96	288	0
TAP	15	192	1
TAP	15	192	6
STR	16	0	2
SI_	16	0	2	96	288	7
TAP	17	192	1
TAP	17	192	6
BRK	18	0	7
HLD	19	0	6	192
HLD	19	192	5	192
TAP	20	0	4
TAP	20	192	2
TAP	20	192	3
HLD	21	0	1	192
HLD	21	192	2	192
TAP	22	0	3
TAP	22	192	4
TAP	22	192	5
HLD	23	0	6	192
HLD	23	192	4	192
TAP	24	0	3
TAP	24	192	2
TAP	24	192	4
HLD	25	0	1	192
HLD	25	192	3	192
TAP	26	0	4
TAP	26	192	3
TAP	26	192	5
TAP	27	0	7
TAP	27	96	7
TAP	27	192	7
TAP	28	0	6
TAP	28	96	6
TAP	28	192	6
TAP	29	0	5
TAP	29	96	5
TAP	29	192	5
TAP	30	0	4
TAP	30	96	4
TAP	30	192	3
TAP	30	192	4
TAP	31	0	3
TAP	31	96	3
TAP	31	192	3
TAP	32	0	2
TAP	32	96	2
TAP	32	192	2
TAP	33	0	1
TAP	33	96	1
TAP	33	192	1
TAP	34	0	0
TAP	34	96	0
TAP	34	192	0
TAP	34	192	7
STR	35	0	0
SSL	35	0	0	96	288	4
TAP	36	192	7
STR	37	0	7
SSR	37	0	7	96	288	3
TAP	38	192	0
STR	39	0	0
SUR	39	0	0	96	288	3
TAP	40	192	7
STR	41	0	7
SUL	41	0	7	96	288	4
BRK	42	192	0
TAP	43	0	0
TAP	43	96	0
TAP	43	192	1
TAP	43	288	1
TAP	44	0	2
TAP	44	96	2
TAP	44	192	2
TAP	44	192	3
TAP	45	0	4
TAP	45	96	4
TAP	45	192	5
TAP	45	288	5
TAP	46	0	6
TAP	46	96	6
TAP	46	192	6
TAP	46	192	7
TAP	47	0	7
TAP	47	96	7
TAP	47	192	6
TAP	47	288	6
TAP	48	0	5
TAP	48	96	5
TAP	48	192	4
TAP	48	192	5
TAP	49	0	3
TAP	49	95	3
TAP	49	192	2
TAP	49	288	2
TAP	50	0	1
TAP	50	96	1
TAP	50	192	0
TAP	50	192	1
STR	51	0	7
SI_	51	0	7	96	192	4
TAP	52	0	2
TAP	52	96	2
TAP	52	192	1
STR	53	0	0
SI_	53	0	0	96	192	3
TAP	54	0	5
TAP	54	96	5
TAP	54	192	6
STR	55	0	6
SI_	55	0	6	96	192	3
TAP	56	0	1
TAP	56	96	1
TAP	56	192	0
STR	57	0	1
SI_	57	0	1	96	192	4
TAP	58	0	6
TAP	58	96	6
BRK	58	192	0
BRK	58	192	7
HLD	59	0	2	192
TAP	59	192	4
HLD	60	0	5	192
TAP	60	192	3
HLD	61	0	2	192
TAP	61	192	3
HLD	62	0	5	192
TAP	62	192	4
HLD	63	0	1	192
TAP	63	192	7
HLD	64	0	6	192
TAP	64	192	0
HLD	65	0	1	192
TAP	65	192	0
HLD	66	0	6	192
BRK	66	192	7
HLD	67	0	0	192
HLD	68	0	1	192
HLD	69	0	2	192
HLD	70	0	3	192
HLD	71	0	4	192
TAP	71	192	5
HLD	72	0	3	192
TAP	72	192	2
HLD	73	0	5	192
HLD	73	192	6	192
HLD	74	0	7	192
BRK	74	192	0
TAP	76	0	0
TAP	76	96	0
TAP	76	192	1
TAP	76	288	1
TAP	77	0	2
TAP	77	96	2
TAP	77	192	3
TAP	77	192	4
TAP	77	288	3
TAP	77	288	4
TAP	78	0	4
TAP	78	96	4
TAP	78	192	5
TAP	78	288	5
TAP	79	0	6
TAP	79	96	6
TAP	79	192	0
TAP	79	192	7
TAP	79	288	0
TAP	79	288	7
TAP	80	0	7
TAP	80	96	7
TAP	80	192	6
TAP	80	288	6
TAP	81	0	5
TAP	81	96	5
TAP	81	192	3
TAP	81	192	4
TAP	81	288	3
TAP	81	288	4
TAP	82	0	3
TAP	82	96	3
TAP	82	192	2
TAP	82	288	2
TAP	83	0	1
TAP	83	96	1
BRK	83	192	0
BRK	83	192	7
TAP	84	0	1
TAP	84	96	1
TAP	84	192	2
TAP	84	288	2
TAP	85	0	3
TAP	85	96	4
TAP	85	192	3
TAP	85	288	4
TAP	86	0	5
TAP	86	96	5
TAP	86	192	6
TAP	86	288	6
TAP	87	0	7
TAP	87	96	7
TAP	87	192	0
TAP	87	192	7
TAP	87	288	0
TAP	87	288	7
TAP	88	0	6
TAP	88	96	6
TAP	88	192	5
TAP	88	288	5
TAP	89	0	4
TAP	89	96	3
TAP	89	192	4
TAP	89	288	2
TAP	89	288	3
TAP	90	96	4
TAP	90	96	5
TAP	90	288	2
TAP	90	288	3
HLD	91	192	7	192
STR	92	0	0
SI_	92	0	0	96	192	3
TAP	93	0	5
TAP	93	96	5
TAP	93	192	6
STR	94	0	7
SI_	94	0	7	96	192	4
TAP	95	0	2
TAP	95	96	2
TAP	95	192	1
STR	96	0	1
SI_	96	0	1	96	192	4
TAP	97	0	6
TAP	97	96	6
TAP	97	192	7
STR	98	0	6
SI_	98	0	6	96	192	3
TAP	99	0	1
TAP	99	96	1
BRK	99	192	0
BRK	99	192	7
STR	100	0	0
SCR	100	0	0	96	192	3
TAP	101	0	5
TAP	101	96	5
TAP	101	192	6
STR	102	0	7
SCL	102	0	7	96	192	4
TAP	103	0	2
TAP	103	96	2
TAP	103	192	1
STR	104	0	1
SCR	104	0	1	96	192	4
TAP	105	0	6
TAP	105	96	6
TAP	105	192	7
STR	106	0	6
SCL	106	0	6	96	192	3
TAP	107	0	1
TAP	107	96	1
BRK	107	192	0
BRK	107	192	7
HLD	108	0	0	192
TAP	108	192	1
HLD	109	0	1	192
TAP	109	192	2
HLD	110	0	2	192
TAP	110	192	3
HLD	111	0	3	192
TAP	111	192	4
HLD	112	0	4	192
TAP	112	192	5
HLD	113	0	5	192
TAP	113	192	6
HLD	114	0	6	192
TAP	114	192	7
STR	115	0	7
SSR	115	0	7	96	240	3

T_REC_TAP	204
T_REC_BRK	14
T_REC_XTP	0
T_REC_HLD	33
T_REC_XHO	0
T_REC_STR	21
T_REC_BST	0
T_REC_XST	0
T_REC_TTP	0
T_REC_THO	0
T_REC_SLD	21
T_REC_ALL	293
T_NUM_TAP	225
T_NUM_BRK	14
T_NUM_HLD	33
T_NUM_SLD	21
T_NUM_ALL	293
T_JUDGE_TAP	239
T_JUDGE_HLD	132
T_JUDGE_SLD	21
T_JUDGE_ALL	392
TTM_EACHPAIRS	30
TTM_SCR_TAP	112500
TTM_SCR_BRK	36400
TTM_SCR_HLD	33000
TTM_SCR_SLD	31500
TTM_SCR_ALL	213400
TTM_SCR_S	205650
TTM_SCR_SS	212000
TTM_RAT_ACV	10066

