VERSION	0.00.00	1.03.00
FES_MODE	0
BPM_DEF	210.000	210.000	210.000	210.000
MET_DEF	4	4
RESOLUTION	384
CLK_DEF	384
COMPATIBLE_CODE	MA2

BPM	0	0	210.000
MET	0	0	4	4

TAP	10	0	0
TAP	11	0	0
TAP	12	0	7
TAP	13	0	7
TAP	14	0	0
TAP	15	0	7
TAP	16	0	0
TAP	16	0	7
TAP	17	0	0
TAP	17	0	7
TAP	19	0	0
TAP	20	0	0
TAP	21	0	1
TAP	21	192	1
TAP	22	0	1
TAP	23	0	2
TAP	24	0	2
TAP	25	0	3
TAP	25	192	3
TAP	26	0	3
TAP	27	0	4
TAP	28	0	4
TAP	29	0	5
TAP	29	192	5
TAP	30	0	5
TAP	31	0	6
TAP	32	0	6
TAP	33	0	7
TAP	33	192	7
TAP	34	0	7
HLD	35	0	0	384
HLD	35	0	7	384
HLD	37	0	1	384
HLD	37	0	6	384
HLD	39	0	2	384
HLD	39	0	5	384
HLD	41	0	3	384
HLD	41	0	4	384
TAP	43	0	3
TAP	43	192	3
TAP	44	0	3
TAP	45	0	2
TAP	45	192	2
TAP	46	0	2
TAP	47	0	1
TAP	47	192	1
TAP	48	0	1
TAP	49	0	0
TAP	49	192	0
TAP	50	0	0
TAP	51	0	7
TAP	51	192	7
TAP	52	0	7
TAP	53	0	6
TAP	53	192	6
TAP	54	0	6
TAP	55	0	5
TAP	55	192	5
TAP	56	0	5
TAP	57	0	4
TAP	57	192	4
TAP	58	0	4
TAP	59	0	3
TAP	59	0	4
TAP	60	0	3
TAP	60	0	4
TAP	61	0	2
TAP	61	0	3
TAP	62	0	2
TAP	62	0	3
TAP	63	0	4
TAP	63	0	5
TAP	64	0	4
TAP	64	0	5
TAP	65	0	3
TAP	65	0	4
TAP	66	0	2
TAP	66	0	5
STR	67	0	4
SI_	67	0	4	96	288	7
STR	69	0	0
SI_	69	0	0	96	288	3
STR	71	0	4
SI_	71	0	4	96	288	7
TAP	73	0	0
HLD	74	0	0	384
HLD	74	0	7	384
TAP	76	0	7
TAP	76	192	7
TAP	77	0	6
TAP	77	192	6
TAP	78	0	5
TAP	78	192	5
TAP	79	0	4
TAP	79	192	4
TAP	80	0	3
TAP	80	192	3
TAP	81	0	2
TAP	81	192	2
TAP	82	0	1
TAP	82	192	1
BRK	83	0	0
TAP	84	0	0
TAP	84	192	0
TAP	85	0	1
TAP	85	192	1
TAP	86	0	2
TAP	86	192	2
TAP	87	0	3
TAP	87	192	3
TAP	88	0	4
TAP	88	192	4
TAP	89	0	5
TAP	89	192	5
TAP	90	0	6
TAP	90	192	6
BRK	91	0	7
TAP	92	0	0
TAP	92	0	1
TAP	92	192	0
TAP	92	192	1
TAP	93	0	0
TAP	93	0	1
TAP	94	0	2
TAP	94	0	3
TAP	94	192	2
TAP	94	192	3
TAP	95	0	2
TAP	95	0	3
TAP	96	0	4
TAP	96	0	5
TAP	96	192	4
TAP	96	192	5
TAP	97	0	4
TAP	97	0	5
TAP	98	0	6
TAP	98	0	7
TAP	98	192	6
TAP	98	192	7
TAP	99	0	6
TAP	99	0	7
TAP	100	0	0
TAP	100	0	7
TAP	100	192	0
TAP	100	192	7
TAP	101	0	0
TAP	101	0	7
TAP	102	0	1
TAP	102	0	6
TAP	102	192	1
TAP	102	192	6
TAP	103	0	1
TAP	103	0	6
TAP	104	0	2
TAP	104	0	5
TAP	104	192	2
TAP	104	192	5
TAP	105	0	2
TAP	105	0	5
TAP	106	0	3
TAP	106	0	4
TAP	106	192	3
TAP	106	192	4
TAP	107	0	3
TAP	107	0	4
TAP	108	0	3
TAP	109	0	2
TAP	110	0	1
TAP	111	0	0
TAP	112	0	7
TAP	113	0	6
TAP	114	0	5
BRK	115	0	4

T_REC_TAP	154
T_REC_BRK	3
T_REC_XTP	0
T_REC_HLD	10
T_REC_XHO	0
T_REC_STR	3
T_REC_BST	0
T_REC_XST	0
T_REC_TTP	0
T_REC_THO	0
T_REC_SLD	3
T_REC_ALL	173
T_NUM_TAP	157
T_NUM_BRK	3
T_NUM_HLD	10
T_NUM_SLD	3
T_NUM_ALL	173
T_JUDGE_TAP	160
T_JUDGE_HLD	80
T_JUDGE_SLD	3
T_JUDGE_ALL	243
TTM_EACHPAIRS	39
TTM_SCR_TAP	78500
TTM_SCR_BRK	7800
TTM_SCR_HLD	10000
TTM_SCR_SLD	4500
TTM_SCR_ALL	100800
TTM_SCR_S	97500
TTM_SCR_SS	100500
TTM_RAT_ACV	10029

