VERSION	0.00.00	1.03.00
FES_MODE	0
BPM_DEF	163.000	163.000	163.000	163.000
MET_DEF	4	4
RESOLUTION	384
CLK_DEF	384
COMPATIBLE_CODE	MA2

BPM	0	0	163.000
MET	0	0	4	4

TAP	1	0	0
TAP	1	192	1
BRK	2	0	0
BRK	2	0	7
BRK	2	96	1
BRK	2	96	6
BRK	2	192	2
BRK	2	192	5
BRK	2	288	3
BRK	2	288	4
HLD	3	0	1	96
HLD	3	0	6	288
TAP	3	192	1
TAP	3	288	1
HLD	4	0	2	288
HLD	4	0	5	96
TAP	4	192	5
TAP	4	288	5
HLD	5	0	0	96
HLD	5	0	7	288
TAP	5	192	0
TAP	5	288	0
HLD	6	0	1	96
HLD	6	96	3	96
HLD	6	192	5	96
TAP	6	240	7
TAP	6	288	7
HLD	7	0	1	288
HLD	7	0	6	96
TAP	7	192	6
TAP	7	288	6
HLD	8	0	2	96
HLD	8	0	5	288
TAP	8	192	2
TAP	8	288	2
HLD	9	0	0	288
HLD	9	0	7	96
TAP	9	192	7
TAP	9	288	7
HLD	10	0	6	96
HLD	10	96	4	96
HLD	10	192	2	96
TAP	10	240	0
TAP	10	288	0
TAP	11	0	7
TAP	11	48	6
TAP	11	96	5
TAP	11	144	4
TAP	11	192	3
HLD	11	240	2	96
HLD	11	336	1	96
STR	12	48	0
SI_	12	48	0	96	48	4
TAP	12	240	5
TAP	12	288	6
STR	12	336	7
SCL	12	336	7	96	240	0
HLD	14	0	1	96
HLD	14	96	3	96
HLD	14	192	5	96
TAP	14	240	7
TAP	14	288	7
TAP	15	0	0
TAP	15	48	1
TAP	15	96	2
TAP	15	144	3
TAP	15	192	4
HLD	15	240	5	96
HLD	15	336	6	96
STR	16	48	7
SI_	16	48	7	96	48	3
TAP	16	240	2
TAP	16	288	1
HLD	16	336	0	144
STR	17	48	1
SCR	17	48	1	96	144	6
TAP	17	96	1
HLD	18	0	6	96
HLD	18	96	4	96
HLD	18	192	2	96
TAP	18	240	0
TAP	18	288	0
STR	19	0	1
SCR	19	0	1	96	48	4
TAP	19	96	7
STR	19	192	6
SCL	19	192	6	96	48	3
TAP	19	288	0
TAP	20	0	0
STR	20	0	1
SCR	20	0	1	96	48	4
TAP	20	96	7
STR	20	192	6
SCL	20	192	6	96	48	3
TAP	20	192	7
TAP	20	288	0
STR	21	0	2
SCL	21	0	2	96	48	7
TAP	21	96	4
STR	21	192	5
SCR	21	192	5	96	48	0
TAP	21	288	3
STR	22	0	2
SCL	22	0	2	96	48	7
TAP	22	0	3
TAP	22	96	4
TAP	22	192	4
STR	22	192	5
SCR	22	192	5	96	48	0
TAP	22	288	3
STR	23	0	1
SCR	23	0	1	96	48	4
TAP	23	96	0
STR	23	192	6
SCL	23	192	6	96	48	3
TAP	23	288	7
STR	24	0	1
SCR	24	0	1	96	48	4
TAP	24	0	4
TAP	24	96	7
TAP	24	192	3
STR	24	192	6
SCL	24	192	6	96	48	3
TAP	24	288	0
STR	25	0	2
SCL	25	0	2	96	192	5
TAP	26	48	4
TAP	26	96	3
TAP	26	144	4
TAP	26	192	2
TAP	26	240	5
TAP	26	288	1
TAP	26	336	6
STR	27	0	0
SI_	27	0	0	96	48	4
TAP	27	48	7
TAP	27	96	0
STR	27	192	5
SI_	27	192	5	96	48	1
TAP	27	240	4
TAP	27	288	5
STR	28	0	2
SI_	28	0	2	96	48	6
TAP	28	48	3
TAP	28	96	2
STR	28	192	7
SI_	28	192	7	96	48	3
TAP	28	240	0
TAP	28	288	7
STR	29	0	4
SI_	29	0	4	96	48	0
TAP	29	48	5
TAP	29	96	4
TAP	29	96	6
STR	29	192	6
SI_	29	192	6	96	48	2
TAP	29	240	7
TAP	29	288	0
TAP	29	288	6
STR	30	0	1
SI_	30	0	1	96	48	5
TAP	30	48	0
TAP	30	96	1
TAP	30	96	7
STR	30	192	3
SI_	30	192	3	96	48	7
TAP	30	240	2
TAP	30	288	1
TAP	30	288	3
STR	31	0	0
SI_	31	0	0	96	48	5
TAP	31	48	1
TAP	31	96	2
TAP	31	144	3
STR	31	192	4
SI_	31	192	4	96	48	1
TAP	31	240	5
TAP	31	288	6
TAP	31	336	7
TAP	32	0	0
TAP	32	0	7
TAP	32	144	0
TAP	32	144	4
TAP	32	192	2
TAP	32	192	6
TAP	32	264	1
TAP	32	264	5
STR	32	336	3
SCL	32	336	3	96	144	7
STR	32	336	7
SCL	32	336	7	96	144	3
BRK	34	0	0
BRK	34	0	7
TAP	34	96	1
TAP	34	96	6
TAP	34	192	2
TAP	34	192	5
TAP	34	288	3
TAP	34	288	4
TAP	35	0	3
TAP	35	48	4
TAP	35	96	1
TAP	35	96	5
TAP	35	144	2
TAP	35	144	6
TAP	35	192	1
TAP	35	192	5
TAP	35	288	4
TAP	35	336	3
TAP	36	0	2
TAP	36	0	6
TAP	36	48	1
TAP	36	48	5
TAP	36	96	2
TAP	36	96	6
TAP	36	192	3
TAP	36	240	4
TAP	36	288	5
TAP	36	336	6
STR	37	0	7
SI_	37	0	7	96	48	3
STR	37	96	7
SI_	37	96	7	96	48	2
STR	37	192	7
SI_	37	192	7	96	48	4
STR	37	288	7
SCR	37	288	7	96	96	2
STR	38	0	2
SCR	38	0	2	96	96	5
STR	38	96	5
SI_	38	96	5	96	96	1
TAP	38	192	7
BRK	38	240	0
BRK	38	288	0
TAP	39	0	3
TAP	39	48	4
TAP	39	96	5
TAP	39	96	7
TAP	39	144	0
TAP	39	144	6
TAP	39	192	1
TAP	39	192	7
TAP	39	288	4
TAP	39	336	3
TAP	40	0	0
TAP	40	0	2
TAP	40	48	1
TAP	40	48	7
TAP	40	96	0
TAP	40	96	6
TAP	40	192	3
TAP	40	240	4
TAP	40	288	5
TAP	40	336	6
TAP	41	0	6
STR	41	0	7
SI_	41	0	7	96	48	3
TAP	41	96	0
STR	41	192	0
SI_	41	192	0	96	48	4
TAP	41	192	1
TAP	41	288	7
STR	42	0	0
SI_	42	0	0	96	48	3
STR	42	0	7
SI_	42	0	7	96	48	4
TAP	42	96	0
TAP	42	96	7
BRK	42	192	0
BRK	42	192	7
BRK	42	240	1
BRK	42	240	6
BRK	42	288	2
BRK	42	288	5
TAP	43	0	4
TAP	43	48	3
TAP	43	96	2
TAP	43	96	6
TAP	43	144	1
TAP	43	144	5
TAP	43	192	2
TAP	43	192	6
TAP	43	288	3
TAP	43	336	4
TAP	44	0	1
TAP	44	0	5
TAP	44	48	2
TAP	44	48	6
TAP	44	96	1
TAP	44	96	5
TAP	44	192	4
TAP	44	240	3
TAP	44	288	2
TAP	44	336	1
STR	45	0	0
SI_	45	0	0	96	48	4
STR	45	96	0
SI_	45	96	0	96	48	5
STR	45	192	0
SI_	45	192	0	96	48	3
STR	45	288	0
SCL	45	288	0	96	96	5
STR	46	0	5
SCL	46	0	5	96	96	2
STR	46	96	2
SI_	46	96	2	96	96	6
TAP	46	192	0
TAP	46	240	7
TAP	46	288	7
TAP	47	0	4
TAP	47	48	3
TAP	47	96	0
TAP	47	96	2
TAP	47	144	1
TAP	47	144	7
TAP	47	192	0
TAP	47	192	6
TAP	47	288	3
TAP	47	336	4
TAP	48	0	5
TAP	48	0	7
TAP	48	48	0
TAP	48	48	6
TAP	48	96	1
TAP	48	96	7
TAP	48	192	4
TAP	48	240	3
TAP	48	288	2
TAP	48	336	1
STR	49	0	0
SI_	49	0	0	96	96	5
STR	49	96	5
SI_	49	96	5	96	96	2
STR	49	192	2
SI_	49	192	2	96	96	7
STR	49	288	7
SCL	49	288	7	96	192	0
BRK	50	240	7
BRK	50	288	0
HLD	51	0	1	96
HLD	51	0	6	288
TAP	51	192	3
TAP	51	288	3
HLD	52	0	2	288
HLD	52	0	5	96
TAP	52	192	4
TAP	52	288	4
TAP	53	0	1
HLD	53	0	6	48
TAP	53	48	3
HLD	53	96	2	48
TAP	53	96	5
TAP	53	144	4
TAP	53	192	0
HLD	53	192	7	48
TAP	53	240	3
HLD	53	288	1	48
TAP	53	288	6
TAP	53	336	4
TAP	54	0	2
HLD	54	0	5	48
TAP	54	48	3
HLD	54	96	0	96
HLD	54	96	7	96
BRK	54	240	7
BRK	54	288	0
HLD	55	0	1	288
HLD	55	0	6	96
TAP	55	192	4
TAP	55	288	4
HLD	56	0	2	96
HLD	56	0	5	288
TAP	56	192	3
TAP	56	288	3
HLD	57	0	1	48
TAP	57	0	6
TAP	57	48	4
TAP	57	96	2
HLD	57	96	5	48
TAP	57	144	3
HLD	57	192	0	48
TAP	57	192	7
TAP	57	240	4
TAP	57	288	1
HLD	57	288	6	48
TAP	57	336	3
HLD	58	0	2	48
TAP	58	0	5
TAP	58	48	4
HLD	58	96	0	96
HLD	58	96	7	96
STR	59	0	1
SCR	59	0	1	96	96	4
STR	59	0	5
SCR	59	0	5	96	96	0
STR	60	0	2
SCL	60	0	2	96	240	6
TAP	60	192	4
STR	61	0	5
SCR	61	0	5	96	240	1
TAP	61	192	3
STR	62	0	2
SCL	62	0	2	96	240	6
TAP	62	192	4
STR	63	0	5
SCR	63	0	5	96	240	1
TAP	63	192	3
STR	64	0	2
SCL	64	0	2	96	240	6
HLD	64	0	3	192
HLD	65	0	4	192
STR	65	0	5
SCR	65	0	5	96	240	1
STR	66	0	2
SI_	66	0	2	96	96	6
STR	66	192	5
SI_	66	192	5	96	96	1
STR	67	0	3
SI_	67	0	3	96	96	7
STR	68	0	4
SUR	68	0	4	96	240	1
STR	68	0	5
SCR	68	0	5	96	240	1
STR	69	0	2
SCL	69	0	2	96	240	6
STR	69	0	3
SUL	69	0	3	96	240	6
STR	70	0	4
SUR	70	0	4	96	240	1
STR	70	0	5
SCR	70	0	5	96	240	1
STR	71	0	2
SCL	71	0	2	96	240	6
STR	71	0	3
SUL	71	0	3	96	240	6
HLD	72	0	1	144
HLD	72	0	7	336
HLD	72	192	5	336
HLD	73	0	3	288
HLD	73	192	1	96
STR	73	336	1
SCR	73	336	1	96	240	7
STR	73	336	7
SCL	73	336	7	96	240	1
BRK	75	0	0
BRK	75	0	7
TAP	75	96	1
TAP	75	96	6
TAP	75	192	2
TAP	75	192	5
TAP	75	288	3
TAP	75	288	4
TAP	76	0	2
TAP	76	48	3
STR	76	96	6
SI_	76	96	6	96	48	2
STR	76	96	7
SI_	76	96	7	96	48	3
TAP	76	144	0
TAP	76	144	5
BRK	76	192	6
BRK	76	192	7
TAP	76	288	5
TAP	76	336	4
STR	77	0	0
SI_	77	0	0	96	48	4
STR	77	0	1
SI_	77	0	1	96	48	5
TAP	77	48	2
TAP	77	48	7
BRK	77	96	0
BRK	77	96	1
TAP	77	192	3
TAP	77	240	4
TAP	77	288	5
TAP	77	336	6
STR	78	0	7
SUL	78	0	7	96	48	3
STR	78	96	7
SV_	78	96	7	96	48	2
STR	78	192	7
SCL	78	192	7	96	48	4
STR	78	288	7
SCR	78	288	7	96	96	2
STR	79	0	2
SCR	79	0	2	96	96	5
STR	79	96	5
SI_	79	96	5	96	96	1
TAP	79	192	7
BRK	79	240	0
BRK	79	288	0
TAP	80	0	5
TAP	80	48	4
STR	80	96	0
SI_	80	96	0	96	48	3
STR	80	96	1
SI_	80	96	1	96	48	6
TAP	80	144	2
TAP	80	144	7
BRK	80	192	0
BRK	80	192	1
TAP	80	288	2
TAP	80	336	3
STR	81	0	6
SI_	81	0	6	96	48	1
STR	81	0	7
SI_	81	0	7	96	48	4
TAP	81	48	0
TAP	81	48	5
BRK	81	96	6
BRK	81	96	7
TAP	81	192	2
TAP	81	240	3
TAP	81	288	4
TAP	81	336	5
STR	82	0	6
SI_	82	0	6	96	48	1
TAP	82	96	2
TAP	82	96	6
STR	82	192	0
SI_	82	192	0	96	48	5
TAP	82	288	0
TAP	82	288	3
HLD	83	0	3	96
TAP	83	0	4
STR	83	96	4
SUL	83	96	4	96	96	3
HLD	84	0	0	48
HLD	84	48	2	48
HLD	84	96	4	48
HLD	84	144	6	48
TAP	84	192	0
STR	84	288	7
SV_	84	288	7	96	48	5
STR	84	336	7
SV_	84	336	7	96	48	1
STR	85	0	7
SI_	85	0	7	96	48	3
TAP	85	192	4
TAP	85	240	3
TAP	85	288	2
TAP	85	336	1
STR	86	0	0
SUR	86	0	0	96	48	4
STR	86	96	0
SV_	86	96	0	96	48	5
STR	86	192	0
SCR	86	192	0	96	48	3
STR	86	288	0
SCL	86	288	0	96	96	5
STR	87	0	5
SCL	87	0	5	96	96	2
STR	87	96	2
SI_	87	96	2	96	96	6
TAP	87	192	0
TAP	87	240	7
TAP	87	288	7
TAP	88	0	5
TAP	88	48	4
STR	88	96	0
SCL	88	96	0	96	48	5
STR	88	96	1
SCR	88	96	1	96	48	4
TAP	88	144	2
TAP	88	144	7
BRK	88	192	0
BRK	88	192	1
TAP	88	288	2
TAP	88	336	3
STR	89	0	6
SCL	89	0	6	96	48	3
STR	89	0	7
SCR	89	0	7	96	48	2
TAP	89	48	0
TAP	89	48	5
BRK	89	96	6
BRK	89	96	7
TAP	89	192	4
TAP	89	240	3
TAP	89	288	2
TAP	89	336	1
STR	90	0	0
SUR	90	0	0	96	96	5
STR	90	96	5
SUR	90	96	5	96	96	2
STR	90	192	2
SUR	90	192	2	96	96	7
STR	90	288	7
SCL	90	288	7	96	192	0
BRK	91	240	7
BRK	91	288	0
BRK	92	0	1
HLD	92	0	6	48
TAP	92	48	4
HLD	92	96	2	48
BRK	92	96	5
TAP	92	144	3
BRK	92	192	0
HLD	92	192	7	48
TAP	92	240	4
HLD	92	288	1	48
BRK	92	288	6
TAP	92	336	3
BRK	93	0	2
HLD	93	0	5	48
TAP	93	48	4
HLD	93	96	0	48
BRK	93	96	7
TAP	93	144	3
BRK	93	192	1
HLD	93	192	6	48
TAP	93	240	4
HLD	93	288	2	48
BRK	93	288	5
TAP	93	336	3
TAP	94	0	2
TAP	94	12	3
TAP	94	24	4
TAP	94	36	5
TAP	94	48	6
TAP	94	60	7
TAP	94	72	0
TAP	94	84	1
TAP	94	96	2
TAP	94	108	3
TAP	94	120	4
TAP	94	132	5
TAP	94	144	6
TAP	94	156	7
TAP	94	168	0
TAP	94	180	1
TAP	94	192	2
TAP	94	204	3
TAP	94	216	4
TAP	94	228	5
TAP	94	240	6
TAP	94	252	7
TAP	94	264	0
TAP	94	276	1
TAP	94	288	2
BRK	94	336	0
BRK	94	336	7
BRK	95	0	1
BRK	95	0	6

T_REC_TAP	313
T_REC_BRK	52
T_REC_XTP	0
T_REC_HLD	71
T_REC_XHO	0
T_REC_STR	104
T_REC_BST	0
T_REC_XST	0
T_REC_TTP	0
T_REC_THO	0
T_REC_SLD	104
T_REC_ALL	644
T_NUM_TAP	417
T_NUM_BRK	52
T_NUM_HLD	71
T_NUM_SLD	104
T_NUM_ALL	644
T_JUDGE_TAP	469
T_JUDGE_HLD	180
T_JUDGE_SLD	104
T_JUDGE_ALL	753
TTM_EACHPAIRS	120
TTM_SCR_TAP	208500
TTM_SCR_BRK	135200
TTM_SCR_HLD	71000
TTM_SCR_SLD	156000
TTM_SCR_ALL	570700
TTM_SCR_S	548550
TTM_SCR_SS	565500
TTM_RAT_ACV	10091

