VERSION	0.00.00	1.03.00
FES_MODE	0
BPM_DEF	163.000	163.000	163.000	163.000
MET_DEF	4	4
RESOLUTION	384
CLK_DEF	384
COMPATIBLE_CODE	MA2

BPM	0	0	163.000
MET	0	0	4	4

TAP	1	0	3
TAP	1	192	2
TAP	2	0	3
TAP	2	96	2
TAP	2	192	1
BRK	2	288	0
HLD	3	0	1	288
HLD	3	0	6	288
HLD	4	0	2	288
HLD	4	0	5	288
HLD	5	0	0	288
HLD	5	0	7	288
HLD	6	0	5	192
BRK	6	240	7
BRK	6	288	7
HLD	7	0	1	288
HLD	7	0	6	288
HLD	8	0	2	288
HLD	8	0	5	288
HLD	9	0	0	288
HLD	9	0	7	288
HLD	10	0	5	192
BRK	10	240	7
BRK	10	288	7
TAP	11	0	2
TAP	11	96	1
TAP	11	192	0
TAP	11	192	7
TAP	12	0	5
TAP	12	96	6
TAP	12	192	0
TAP	12	192	7
TAP	13	0	2
TAP	13	0	5
TAP	13	96	1
TAP	13	96	6
TAP	13	192	0
TAP	13	192	7
HLD	14	0	2	192
HLD	14	0	5	192
BRK	14	240	7
BRK	14	288	7
HLD	15	0	2	96
HLD	15	96	3	96
TAP	15	192	4
HLD	16	0	5	96
HLD	16	96	4	96
TAP	16	192	3
HLD	17	0	1	96
HLD	17	96	0	96
TAP	17	192	7
HLD	18	0	2	192
HLD	18	0	5	192
BRK	18	288	0
BRK	18	288	7
TAP	19	0	2
TAP	19	96	2
TAP	19	192	2
TAP	19	288	2
TAP	19	288	3
TAP	20	0	2
TAP	20	0	3
TAP	20	96	4
TAP	20	96	5
TAP	20	192	2
TAP	20	192	3
TAP	20	288	4
TAP	20	288	5
TAP	21	0	5
TAP	21	96	5
TAP	21	192	5
TAP	21	288	4
TAP	21	288	5
TAP	22	0	4
TAP	22	0	5
TAP	22	96	2
TAP	22	96	3
TAP	22	192	4
TAP	22	192	5
TAP	22	288	2
TAP	22	288	3
HLD	23	0	3	192
HLD	23	0	4	192
TAP	23	288	2
TAP	23	336	1
TAP	24	0	0
TAP	24	96	6
TAP	24	96	7
TAP	24	192	6
TAP	24	240	6
STR	24	336	5
SCR	24	336	5	96	192	2
TAP	26	48	0
TAP	26	96	7
BRK	26	192	1
BRK	26	192	6
BRK	26	288	0
BRK	26	288	7
TAP	27	0	0
HLD	27	96	2	192
TAP	27	192	3
TAP	27	288	3
TAP	28	0	4
TAP	28	0	5
TAP	28	96	0
TAP	28	192	2
TAP	28	192	3
TAP	28	288	7
HLD	29	0	5	288
TAP	29	96	4
TAP	29	192	4
TAP	29	288	4
TAP	30	0	0
TAP	30	0	1
TAP	30	96	4
TAP	30	192	6
TAP	30	192	7
TAP	30	288	3
STR	31	0	3
SCL	31	0	3	96	288	4
STR	31	0	4
SCR	31	0	4	96	288	3
TAP	32	144	0
TAP	32	144	7
TAP	32	192	0
TAP	32	192	7
TAP	32	264	1
TAP	32	264	6
STR	32	336	2
SCL	32	336	2	96	240	5
TAP	32	336	5
BRK	34	0	0
BRK	34	0	7
TAP	34	96	1
TAP	34	96	6
TAP	34	192	2
TAP	34	192	5
TAP	34	288	3
TAP	34	288	4
TAP	35	0	2
TAP	35	0	3
TAP	35	96	2
TAP	35	144	3
TAP	35	192	2
TAP	35	288	4
TAP	35	288	5
TAP	36	0	5
TAP	36	48	4
TAP	36	96	5
TAP	36	192	2
TAP	36	192	5
TAP	36	288	0
TAP	36	288	7
TAP	37	0	0
TAP	37	0	1
TAP	37	96	2
TAP	37	96	7
TAP	37	192	3
TAP	37	192	6
TAP	37	288	4
TAP	37	288	5
TAP	38	0	6
TAP	38	0	7
TAP	38	96	0
TAP	38	96	5
TAP	38	192	1
TAP	38	192	4
BRK	38	240	0
BRK	38	288	0
TAP	39	0	2
TAP	39	48	3
TAP	39	96	2
TAP	39	144	3
TAP	39	192	2
TAP	39	192	3
TAP	39	288	5
TAP	39	336	4
TAP	40	0	5
TAP	40	48	4
TAP	40	96	4
TAP	40	96	5
TAP	40	192	4
TAP	40	192	6
TAP	40	288	4
TAP	40	288	5
TAP	41	0	2
TAP	41	0	3
TAP	41	96	0
TAP	41	96	1
TAP	41	192	6
TAP	41	192	7
TAP	41	288	4
TAP	41	288	5
TAP	42	0	2
TAP	42	0	5
TAP	42	96	0
TAP	42	96	7
TAP	42	144	0
TAP	42	144	7
STR	42	192	0
SI_	42	192	0	96	48	3
STR	42	192	7
SI_	42	192	7	96	48	4
TAP	43	0	1
TAP	43	0	4
TAP	43	48	2
TAP	43	96	3
TAP	43	144	2
TAP	43	192	1
TAP	43	192	4
TAP	43	288	3
TAP	43	288	6
TAP	43	336	5
TAP	44	0	4
TAP	44	48	5
TAP	44	96	3
TAP	44	96	6
TAP	44	192	0
TAP	44	240	4
TAP	44	288	2
TAP	44	336	6
TAP	45	0	0
TAP	45	48	4
TAP	45	96	1
TAP	45	144	5
TAP	45	192	2
TAP	45	240	6
TAP	45	288	3
TAP	45	336	7
TAP	46	0	1
TAP	46	0	6
TAP	46	96	3
TAP	46	96	4
BRK	46	192	2
BRK	46	192	5
BRK	46	288	0
BRK	46	288	7
TAP	47	0	2
TAP	47	0	7
TAP	47	48	1
TAP	47	96	0
TAP	47	144	1
TAP	47	192	2
TAP	47	192	7
TAP	47	288	0
TAP	47	288	5
TAP	47	336	6
TAP	48	0	7
TAP	48	48	6
TAP	48	96	0
TAP	48	96	5
TAP	48	192	7
TAP	48	240	3
TAP	48	288	5
TAP	48	336	1
STR	49	0	6
SI_	49	0	6	96	48	3
STR	49	0	7
SI_	49	0	7	96	48	3
STR	49	192	0
SI_	49	192	0	96	48	4
STR	49	192	1
SI_	49	192	1	96	48	4
HLD	50	0	2	192
HLD	50	0	5	192
BRK	50	240	0
BRK	50	288	0
TAP	51	0	5
TAP	51	96	5
TAP	51	192	5
HLD	51	288	5	384
TAP	52	0	4
TAP	52	96	4
HLD	52	192	4	96
BRK	53	0	0
BRK	53	0	1
BRK	53	96	2
BRK	53	96	7
BRK	53	192	3
BRK	53	192	6
BRK	53	288	6
BRK	53	288	7
BRK	54	0	0
BRK	54	0	5
BRK	54	96	1
BRK	54	96	4
BRK	54	240	0
BRK	54	288	0
TAP	55	0	2
TAP	55	96	2
TAP	55	192	2
HLD	55	288	2	384
TAP	56	0	3
TAP	56	96	3
HLD	56	192	3	96
BRK	57	0	3
BRK	57	0	6
BRK	57	96	2
BRK	57	96	7
BRK	57	192	0
BRK	57	192	1
BRK	57	288	1
BRK	57	288	4
BRK	58	0	0
BRK	58	0	5
BRK	58	96	6
BRK	58	96	7
TAP	58	192	0
TAP	58	192	7
HLD	58	288	0	192
HLD	58	288	7	192
STR	60	0	1
SCL	60	0	1	96	192	6
STR	61	0	6
SCR	61	0	6	96	192	1
STR	62	0	1
SCL	62	0	1	96	192	6
STR	63	0	6
SCR	63	0	6	96	192	1
STR	64	0	1
SCL	64	0	1	96	192	6
STR	65	0	5
SUR	65	0	5	96	192	2
STR	66	0	1
SCL	66	0	1	96	192	6
STR	67	0	5
SUR	67	0	5	96	192	2
HLD	68	0	1	96
HLD	68	96	2	96
HLD	68	192	3	96
HLD	68	288	6	96
HLD	69	0	5	96
HLD	69	96	4	96
TAP	69	192	0
HLD	69	288	7	96
HLD	70	0	1	96
HLD	70	96	6	96
HLD	70	192	2	96
HLD	70	288	5	96
HLD	71	0	3	96
TAP	71	96	4
TAP	71	192	1
TAP	71	192	6
HLD	72	0	0	96
HLD	72	0	7	96
HLD	72	192	1	96
HLD	72	192	6	96
HLD	73	0	1	192
HLD	73	192	7	144
STR	73	336	0
SCL	73	336	0	96	336	1
BRK	75	0	7
TAP	75	96	0
TAP	75	192	0
TAP	75	288	0
STR	76	0	1
SI_	76	0	1	96	48	4
TAP	76	96	7
STR	76	192	6
SI_	76	192	6	96	48	3
TAP	76	288	0
STR	77	0	0
SI_	77	0	0	96	48	4
TAP	77	96	6
STR	77	192	7
SI_	77	192	7	96	48	3
TAP	77	288	1
TAP	78	0	1
TAP	78	0	2
TAP	78	96	0
TAP	78	96	2
TAP	78	192	2
TAP	78	192	7
TAP	78	288	2
TAP	78	288	6
TAP	79	0	4
TAP	79	0	5
TAP	79	96	2
TAP	79	96	3
TAP	79	192	1
TAP	79	192	6
BRK	79	240	0
BRK	79	288	0
STR	80	0	2
SI_	80	0	2	96	48	7
TAP	80	96	4
STR	80	192	5
SI_	80	192	5	96	48	0
TAP	80	288	3
STR	81	0	3
SI_	81	0	3	96	48	7
TAP	81	96	5
STR	81	192	4
SI_	81	192	4	96	48	0
TAP	81	288	2
TAP	82	0	6
TAP	82	0	7
TAP	82	96	0
TAP	82	96	1
TAP	82	192	2
TAP	82	192	5
TAP	82	288	0
TAP	82	288	7
TAP	83	0	0
TAP	83	0	7
TAP	83	72	0
TAP	83	72	7
TAP	83	144	0
TAP	83	144	7
TAP	83	192	1
TAP	83	240	6
BRK	83	288	0
BRK	83	288	7
HLD	84	0	0	192
HLD	84	96	7	96
STR	84	288	6
SI_	84	288	6	96	48	3
STR	85	0	1
SI_	85	0	1	96	48	4
TAP	85	192	2
TAP	85	192	3
TAP	85	288	4
TAP	85	288	5
HLD	86	0	2	96
HLD	86	96	3	96
HLD	86	192	4	96
HLD	86	288	5	96
HLD	87	0	1	96
TAP	87	96	6
BRK	87	192	0
BRK	87	192	7
BRK	87	240	0
BRK	87	240	7
BRK	87	288	0
BRK	87	288	7
STR	88	0	1
SCL	88	0	1	96	48	6
STR	88	96	5
SUR	88	96	5	96	48	2
STR	88	288	0
SCR	88	288	0	96	48	3
STR	89	0	7
SCL	89	0	7	96	48	4
TAP	89	192	3
TAP	89	288	0
TAP	89	288	7
TAP	90	0	0
TAP	90	0	4
TAP	90	96	1
TAP	90	96	5
TAP	90	192	2
TAP	90	192	6
TAP	90	288	3
TAP	90	288	7
HLD	91	0	1	192
HLD	91	0	6	192
BRK	91	240	0
BRK	91	288	0
BRK	92	0	0
BRK	92	0	1
BRK	92	96	2
BRK	92	96	7
BRK	92	192	3
BRK	92	192	6
BRK	92	288	6
BRK	92	288	7
BRK	93	0	0
BRK	93	0	5
BRK	93	96	1
BRK	93	96	4
BRK	93	192	0
BRK	93	192	7
HLD	93	288	2	288
HLD	93	288	5	288
BRK	94	336	0
BRK	94	336	7
BRK	95	0	0
BRK	95	0	7

T_REC_TAP	267
T_REC_BRK	80
T_REC_XTP	0
T_REC_HLD	65
T_REC_XHO	0
T_REC_STR	33
T_REC_BST	0
T_REC_XST	0
T_REC_TTP	0
T_REC_THO	0
T_REC_SLD	33
T_REC_ALL	478
T_NUM_TAP	300
T_NUM_BRK	80
T_NUM_HLD	65
T_NUM_SLD	33
T_NUM_ALL	478
T_JUDGE_TAP	380
T_JUDGE_HLD	237
T_JUDGE_SLD	33
T_JUDGE_ALL	650
TTM_EACHPAIRS	132
TTM_SCR_TAP	150000
TTM_SCR_BRK	208000
TTM_SCR_HLD	65000
TTM_SCR_SLD	49500
TTM_SCR_ALL	472500
TTM_SCR_S	450600
TTM_SCR_SS	464500
TTM_RAT_ACV	10172

