VERSION	0.00.00	1.03.00
FES_MODE	0
BPM_DEF	163.000	163.000	163.000	163.000
MET_DEF	4	4
RESOLUTION	384
CLK_DEF	384
COMPATIBLE_CODE	MA2

BPM	0	0	163.000
MET	0	0	4	4

STR	3	0	0
SCR	3	0	0	96	192	4
STR	4	0	7
SCL	4	0	7	96	192	3
STR	5	0	0
SI_	5	0	0	96	192	3
STR	5	0	7
SI_	5	0	7	96	192	4
HLD	6	0	3	192
HLD	6	0	4	192
TAP	6	240	3
TAP	6	240	4
TAP	6	288	3
TAP	6	288	4
STR	7	0	1
SCL	7	0	1	96	192	5
STR	8	0	6
SCR	8	0	6	96	192	2
STR	9	0	3
SI_	9	0	3	96	192	0
STR	9	0	4
SI_	9	0	4	96	192	7
HLD	10	0	0	192
HLD	10	0	7	192
TAP	10	240	0
TAP	10	240	7
BRK	10	288	0
BRK	10	288	7
TAP	11	0	1
TAP	11	96	0
TAP	11	192	2
TAP	11	192	7
TAP	12	0	3
TAP	12	96	4
TAP	12	192	2
TAP	12	192	5
TAP	13	0	6
TAP	13	96	7
TAP	13	192	0
TAP	13	192	5
TAP	14	0	2
TAP	14	0	3
TAP	14	96	4
TAP	14	96	5
TAP	14	192	3
TAP	14	240	4
TAP	14	288	3
TAP	15	0	6
TAP	15	96	7
TAP	15	192	0
TAP	15	192	5
TAP	16	0	4
TAP	16	96	3
TAP	16	192	2
TAP	16	192	5
TAP	17	0	1
TAP	17	96	0
TAP	17	192	2
TAP	17	192	7
TAP	18	0	4
TAP	18	0	5
TAP	18	96	2
TAP	18	96	3
TAP	18	192	4
TAP	18	240	3
TAP	18	288	4
TAP	19	96	2
TAP	19	96	3
TAP	19	192	3
TAP	19	192	4
TAP	19	288	4
TAP	19	288	5
STR	20	0	3
SUR	20	0	3	96	288	4
TAP	21	96	4
TAP	21	96	5
TAP	21	192	3
TAP	21	192	4
TAP	21	288	2
TAP	21	288	3
HLD	22	0	1	96
TAP	22	96	0
TAP	22	144	0
TAP	22	288	6
TAP	22	288	7
TAP	23	0	5
TAP	23	96	4
TAP	23	96	5
TAP	23	192	2
TAP	23	288	2
TAP	23	288	3
TAP	24	0	6
TAP	24	96	4
TAP	24	96	6
TAP	24	192	1
TAP	24	288	1
TAP	24	288	3
STR	25	0	2
SCL	25	0	2	96	384	5
TAP	26	192	1
TAP	26	192	6
TAP	26	288	0
TAP	26	288	7
TAP	27	96	4
TAP	27	96	5
TAP	27	192	3
TAP	27	192	4
TAP	27	288	2
TAP	27	288	3
STR	28	0	4
SUL	28	0	4	96	288	3
TAP	29	96	2
TAP	29	96	3
TAP	29	192	3
TAP	29	192	4
TAP	29	288	4
TAP	29	288	5
HLD	30	0	6	96
TAP	30	96	7
TAP	30	144	7
STR	30	240	0
SCR	30	240	0	96	336	7
TAP	32	0	0
TAP	32	0	7
TAP	32	192	7
STR	32	240	7
SCL	32	240	7	96	336	0
BRK	34	0	0
BRK	34	0	7
TAP	35	0	2
TAP	35	96	2
TAP	35	192	2
TAP	35	192	3
TAP	35	288	5
TAP	36	0	5
TAP	36	96	4
TAP	36	96	5
TAP	36	192	3
TAP	36	240	4
TAP	36	288	3
TAP	37	0	4
TAP	37	0	5
TAP	37	96	2
TAP	37	96	3
TAP	37	192	0
TAP	37	192	1
TAP	37	288	6
TAP	37	288	7
HLD	38	0	0	96
HLD	38	96	6	96
TAP	38	192	7
TAP	38	240	7
BRK	38	288	7
TAP	39	0	1
TAP	39	96	1
TAP	39	192	0
TAP	39	192	1
TAP	39	288	6
TAP	40	0	6
TAP	40	96	6
TAP	40	96	7
TAP	40	192	0
TAP	40	240	7
TAP	40	288	0
TAP	41	0	6
TAP	41	0	7
TAP	41	96	0
TAP	41	96	1
TAP	41	192	2
TAP	41	192	3
TAP	41	288	4
TAP	41	288	5
HLD	42	0	3	96
HLD	42	96	4	96
TAP	42	192	3
TAP	42	288	1
TAP	42	288	6
TAP	43	0	2
TAP	43	96	3
TAP	43	192	1
TAP	43	192	4
TAP	43	288	5
TAP	44	0	4
TAP	44	96	3
TAP	44	96	6
TAP	44	192	4
TAP	44	240	3
TAP	44	288	4
TAP	45	0	2
TAP	45	0	3
TAP	45	96	4
TAP	45	96	5
TAP	45	192	6
TAP	45	192	7
TAP	45	288	0
TAP	45	288	1
HLD	46	0	7	96
HLD	46	96	0	96
TAP	46	192	7
BRK	46	288	0
BRK	46	288	7
TAP	47	0	1
TAP	47	96	0
TAP	47	192	2
TAP	47	192	7
TAP	47	288	6
TAP	48	0	7
TAP	48	96	0
TAP	48	96	5
TAP	48	192	7
TAP	48	240	0
TAP	48	288	7
TAP	49	0	1
TAP	49	0	6
TAP	49	96	2
TAP	49	96	5
TAP	49	192	3
TAP	49	192	4
STR	49	288	2
SCL	49	288	2	96	144	0
STR	49	288	5
SCR	49	288	5	96	144	7
TAP	50	240	0
TAP	50	240	7
BRK	50	288	0
BRK	50	288	7
STR	51	0	1
SCR	51	0	1	96	192	4
STR	52	0	6
SCL	52	0	6	96	192	3
TAP	53	0	3
TAP	53	0	5
TAP	53	96	2
TAP	53	96	4
TAP	53	192	1
TAP	53	192	3
TAP	53	288	2
TAP	53	288	4
TAP	54	0	3
TAP	54	0	5
TAP	54	96	4
TAP	54	96	6
TAP	54	240	0
TAP	54	240	7
TAP	54	288	0
TAP	54	288	7
STR	55	0	6
SCL	55	0	6	96	192	3
STR	56	0	1
SCR	56	0	1	96	192	4
TAP	57	0	2
TAP	57	0	4
TAP	57	96	3
TAP	57	96	5
TAP	57	192	4
TAP	57	192	6
TAP	57	288	3
TAP	57	288	5
TAP	58	0	2
TAP	58	0	4
TAP	58	96	1
TAP	58	96	3
TAP	58	192	2
TAP	58	192	5
TAP	58	288	0
TAP	58	288	7
HLD	60	0	2	192
HLD	60	192	4	192
HLD	61	0	3	192
TAP	61	192	4
TAP	61	288	3
HLD	62	0	2	192
HLD	62	192	4	192
HLD	63	0	3	192
TAP	63	192	5
HLD	64	0	5	192
HLD	64	192	3	192
HLD	65	0	4	192
TAP	65	192	3
TAP	65	288	4
HLD	66	0	5	192
HLD	66	192	3	192
HLD	67	0	4	192
TAP	67	192	2
HLD	68	0	2	192
HLD	68	192	5	192
TAP	69	0	4
TAP	69	96	3
TAP	69	192	2
TAP	69	192	3
TAP	70	0	2
TAP	70	96	2
TAP	70	192	3
TAP	70	288	3
TAP	71	0	4
TAP	71	96	4
TAP	71	192	4
TAP	71	192	5
HLD	72	0	3	192
TAP	72	192	6
HLD	73	0	5	192
STR	73	192	0
SCR	73	192	0	96	480	7
TAP	76	0	7
TAP	76	96	6
TAP	76	192	4
TAP	76	192	5
TAP	76	288	0
TAP	77	0	1
TAP	77	96	2
TAP	77	96	3
TAP	77	192	4
TAP	77	240	3
TAP	77	288	4
TAP	78	0	2
TAP	78	0	3
TAP	78	96	4
TAP	78	96	5
TAP	78	192	6
TAP	78	192	7
TAP	78	288	0
TAP	78	288	1
HLD	79	0	7	96
HLD	79	96	1	96
TAP	79	192	0
TAP	79	240	0
BRK	79	288	0
TAP	80	0	1
TAP	80	96	0
TAP	80	192	6
TAP	80	192	7
TAP	80	288	6
TAP	81	0	7
TAP	81	96	0
TAP	81	96	1
TAP	81	192	7
TAP	81	240	0
TAP	81	288	7
TAP	82	0	0
TAP	82	0	1
TAP	82	96	6
TAP	82	96	7
TAP	82	192	4
TAP	82	192	5
TAP	82	288	2
TAP	82	288	3
HLD	83	0	3	96
HLD	83	96	4	96
TAP	83	192	3
TAP	83	288	1
TAP	83	288	6
TAP	84	0	2
TAP	84	48	4
TAP	84	96	2
TAP	84	192	3
TAP	84	192	4
TAP	84	288	5
TAP	84	336	3
TAP	85	0	5
TAP	85	96	3
TAP	85	96	4
TAP	85	192	4
TAP	85	240	3
TAP	85	288	4
TAP	86	0	2
TAP	86	0	3
TAP	86	96	4
TAP	86	96	5
TAP	86	192	6
TAP	86	192	7
TAP	86	288	0
TAP	86	288	1
HLD	87	0	7	96
HLD	87	96	0	96
TAP	87	192	7
TAP	87	240	0
TAP	87	288	7
TAP	88	0	1
TAP	88	48	0
TAP	88	96	1
TAP	88	192	0
TAP	88	192	7
TAP	88	288	6
TAP	88	336	7
TAP	89	0	6
TAP	89	96	0
TAP	89	96	7
TAP	89	192	0
TAP	89	240	7
TAP	89	288	0
TAP	90	0	0
TAP	90	0	7
TAP	90	96	1
TAP	90	96	6
TAP	90	192	2
TAP	90	192	5
STR	90	288	3
SCL	90	288	3	96	144	0
STR	90	288	4
SCR	90	288	4	96	144	7
TAP	91	240	0
TAP	91	240	7
BRK	91	288	0
BRK	91	288	7
TAP	92	0	1
TAP	92	0	5
TAP	92	96	2
TAP	92	96	6
TAP	92	192	3
TAP	92	192	7
TAP	92	288	2
TAP	92	288	6
TAP	93	0	1
TAP	93	0	5
TAP	93	96	0
TAP	93	96	4
TAP	93	192	2
TAP	93	192	5
HLD	93	288	1	384
HLD	93	288	6	384
BRK	94	336	1
BRK	94	336	6
BRK	95	0	1
BRK	95	0	6

T_REC_TAP	328
T_REC_BRK	16
T_REC_XTP	0
T_REC_HLD	36
T_REC_XHO	0
T_REC_STR	22
T_REC_BST	0
T_REC_XST	0
T_REC_TTP	0
T_REC_THO	0
T_REC_SLD	22
T_REC_ALL	424
T_NUM_TAP	350
T_NUM_BRK	16
T_NUM_HLD	36
T_NUM_SLD	22
T_NUM_ALL	424
T_JUDGE_TAP	366
T_JUDGE_HLD	124
T_JUDGE_SLD	22
T_JUDGE_ALL	512
TTM_EACHPAIRS	122
TTM_SCR_TAP	175000
TTM_SCR_BRK	41600
TTM_SCR_HLD	36000
TTM_SCR_SLD	33000
TTM_SCR_ALL	285600
TTM_SCR_S	275500
TTM_SCR_SS	284000
TTM_RAT_ACV	10056

