VERSION	0.00.00	1.03.00
FES_MODE	0
BPM_DEF	163.000	163.000	163.000	163.000
MET_DEF	4	4
RESOLUTION	384
CLK_DEF	384
COMPATIBLE_CODE	MA2

BPM	0	0	163.000
MET	0	0	4	4

TAP	3	0	0
TAP	4	0	7
TAP	5	0	0
HLD	6	0	1	192
TAP	7	0	0
TAP	8	0	7
TAP	9	0	0
HLD	10	0	1	192
TAP	11	0	0
TAP	11	192	0
TAP	12	0	1
TAP	12	192	1
STR	13	0	2
SI_	13	0	2	96	288	6
TAP	15	0	7
TAP	15	192	7
TAP	16	0	6
TAP	16	192	6
STR	17	0	5
SI_	17	0	5	96	288	1
TAP	19	0	0
TAP	19	192	0
TAP	20	0	1
TAP	20	192	1
TAP	21	0	2
TAP	21	192	2
TAP	22	0	3
TAP	22	192	3
TAP	23	0	4
TAP	23	192	4
TAP	24	0	5
TAP	24	192	5
HLD	25	0	6	384
TAP	27	0	7
TAP	27	192	7
TAP	28	0	6
TAP	28	192	6
TAP	29	0	5
TAP	29	192	5
TAP	30	0	4
TAP	30	192	4
HLD	31	0	2	384
HLD	31	0	3	384
TAP	32	192	2
HLD	33	0	0	384
HLD	33	0	1	384
TAP	35	0	0
TAP	35	96	0
TAP	35	192	1
TAP	36	0	7
TAP	36	96	7
TAP	36	192	6
TAP	37	0	0
TAP	37	0	1
TAP	37	192	0
TAP	37	192	1
TAP	38	0	6
TAP	38	0	7
BRK	38	192	6
BRK	38	192	7
TAP	39	0	5
TAP	39	96	5
TAP	39	192	4
TAP	40	0	2
TAP	40	96	2
TAP	40	192	3
TAP	41	0	4
TAP	41	0	5
TAP	41	192	4
TAP	41	192	5
TAP	42	0	2
TAP	42	0	3
TAP	42	192	2
TAP	42	192	3
TAP	43	0	0
TAP	43	96	1
TAP	43	192	0
TAP	44	0	7
TAP	44	96	6
TAP	44	192	7
TAP	45	0	0
TAP	45	0	1
TAP	45	192	0
TAP	45	192	1
TAP	46	0	6
TAP	46	0	7
BRK	46	192	6
BRK	46	192	7
TAP	47	0	5
TAP	47	96	4
TAP	47	192	5
TAP	48	0	2
TAP	48	96	3
TAP	48	192	2
TAP	49	0	4
TAP	49	0	5
TAP	49	192	4
TAP	49	192	5
HLD	50	0	2	192
HLD	50	0	3	192
TAP	51	0	0
TAP	51	0	7
TAP	52	0	1
TAP	52	0	6
TAP	53	0	0
TAP	53	96	0
TAP	53	192	0
TAP	53	288	7
TAP	54	0	7
TAP	54	96	7
TAP	55	0	0
TAP	55	0	7
TAP	56	0	1
TAP	56	0	6
TAP	57	0	0
TAP	57	96	0
TAP	57	192	0
TAP	57	288	7
TAP	58	0	7
TAP	58	96	7
BRK	59	0	0
STR	60	0	0
SI_	60	0	0	96	288	5
STR	62	0	7
SI_	62	0	7	96	288	2
STR	64	0	1
SI_	64	0	1	96	288	4
STR	66	0	6
SI_	66	0	6	96	288	3
STR	68	0	2
SI_	68	0	2	96	288	7
STR	70	0	5
SI_	70	0	5	96	288	0
STR	72	0	3
SI_	72	0	3	96	288	6
STR	74	0	4
SI_	74	0	4	96	288	1
TAP	76	0	0
TAP	76	96	1
TAP	76	192	1
TAP	77	0	7
TAP	77	96	6
TAP	77	192	6
TAP	78	0	0
TAP	78	0	1
TAP	78	192	0
TAP	78	192	7
TAP	79	0	6
TAP	79	0	7
TAP	79	96	6
TAP	79	96	7
BRK	79	192	6
BRK	79	192	7
TAP	80	0	4
TAP	80	96	5
TAP	80	192	5
TAP	81	0	3
TAP	81	96	2
TAP	81	192	2
TAP	82	0	4
TAP	82	0	5
TAP	82	192	3
TAP	82	192	4
TAP	83	0	2
TAP	83	0	3
TAP	83	96	2
TAP	83	96	3
TAP	83	192	2
TAP	83	192	3
TAP	84	0	0
TAP	84	96	1
TAP	84	192	0
TAP	85	0	7
TAP	85	96	6
TAP	85	192	7
TAP	86	0	6
TAP	86	0	7
TAP	86	192	0
TAP	86	192	7
TAP	87	0	0
TAP	87	0	1
TAP	87	96	0
TAP	87	96	1
BRK	87	192	0
BRK	87	192	1
TAP	88	0	3
TAP	88	96	2
TAP	88	192	3
TAP	89	0	4
TAP	89	96	5
TAP	89	192	4
TAP	90	0	4
TAP	90	0	5
TAP	90	192	3
TAP	90	192	4
HLD	91	0	2	192
HLD	91	0	3	192
TAP	92	0	0
TAP	92	96	1
TAP	92	192	2
TAP	92	288	3
TAP	93	0	4
TAP	93	96	5
TAP	93	192	6
TAP	93	288	7
BRK	95	0	0
BRK	95	0	7

T_REC_TAP	165
T_REC_BRK	11
T_REC_XTP	0
T_REC_HLD	11
T_REC_XHO	0
T_REC_STR	10
T_REC_BST	0
T_REC_XST	0
T_REC_TTP	0
T_REC_THO	0
T_REC_SLD	10
T_REC_ALL	207
T_NUM_TAP	175
T_NUM_BRK	11
T_NUM_HLD	11
T_NUM_SLD	10
T_NUM_ALL	207
T_JUDGE_TAP	186
T_JUDGE_HLD	64
T_JUDGE_SLD	10
T_JUDGE_ALL	260
TTM_EACHPAIRS	40
TTM_SCR_TAP	87500
TTM_SCR_BRK	28600
TTM_SCR_HLD	11000
TTM_SCR_SLD	15000
TTM_SCR_ALL	142100
TTM_SCR_S	136800
TTM_SCR_SS	141000
TTM_RAT_ACV	10078

