VERSION	0.00.00	1.03.00
FES_MODE	0
BPM_DEF	120.000	120.000	120.000	120.000
MET_DEF	4	4
RESOLUTION	384
CLK_DEF	384
COMPATIBLE_CODE	MA2

BPM	0	0	120.000
MET	0	0	4	4

HLD	1	0	4	288
TAP	1	192	3
TAP	1	240	3
TAP	1	288	3
TAP	1	336	2
TAP	1	336	3
TAP	2	0	5
TAP	2	48	4
TAP	2	48	5
TAP	2	96	2
TAP	2	144	2
TAP	2	144	3
TAP	2	192	6
TAP	2	240	4
TAP	2	240	6
TAP	2	288	1
TAP	2	336	1
TAP	2	336	3
TAP	3	0	5
TAP	3	48	4
TAP	3	48	5
TAP	3	96	2
TAP	3	144	2
TAP	3	144	3
TAP	3	192	4
TAP	3	240	3
TAP	3	240	4
TAP	3	288	1
TAP	3	288	6
TAP	4	0	2
TAP	4	48	2
TAP	4	48	3
TAP	4	96	5
TAP	4	144	4
TAP	4	144	5
TAP	4	192	3
TAP	4	240	3
TAP	4	240	4
TAP	4	288	1
TAP	4	288	6
TAP	4	336	4
TAP	4	336	5
TAP	5	0	3
TAP	5	0	6
TAP	5	48	2
TAP	5	48	3
TAP	5	96	1
TAP	5	96	4
TAP	5	144	0
TAP	5	144	7
TAP	5	192	3
TAP	5	192	4
TAP	5	240	3
TAP	5	240	4
TAP	5	288	1
TAP	5	288	6
TAP	6	0	3
TAP	6	0	5
TAP	6	48	2
TAP	6	96	1
TAP	6	96	3
TAP	6	144	4
TAP	6	168	4
TAP	6	192	3
TAP	6	192	5
TAP	6	240	2
TAP	6	288	1
TAP	6	288	3
TAP	6	336	4
TAP	7	0	3
TAP	7	0	5
TAP	7	48	6
TAP	7	96	3
TAP	7	96	5
TAP	7	144	2
TAP	7	192	1
HLD	7	192	3	96
TAP	7	240	1
TAP	7	288	4
TAP	7	336	3
TAP	8	0	2
TAP	8	0	4
TAP	8	48	5
TAP	8	96	4
TAP	8	96	6
TAP	8	144	3
TAP	8	168	3
TAP	8	192	2
TAP	8	192	4
TAP	8	240	5
TAP	8	288	4
TAP	8	288	6
TAP	8	336	3
TAP	9	0	2
TAP	9	0	4
TAP	9	48	1
TAP	9	96	2
TAP	9	96	4
TAP	9	144	5
HLD	9	192	4	96
TAP	9	192	6
TAP	9	240	6
TAP	9	288	3
TAP	9	336	2
TAP	10	0	1
TAP	10	0	7
TAP	10	48	6
TAP	10	96	5
TAP	10	96	7
TAP	10	144	0
TAP	10	168	0
TAP	10	192	1
TAP	10	192	7
TAP	10	240	6
TAP	10	288	5
TAP	10	288	7
TAP	10	336	0
TAP	11	0	1
TAP	11	0	7
TAP	11	48	2
TAP	11	96	1
TAP	11	96	7
TAP	11	144	6
TAP	11	192	5
HLD	11	192	7	96
TAP	11	240	5
TAP	11	288	0
TAP	11	336	7
TAP	12	0	0
TAP	12	0	6
TAP	12	48	1
TAP	12	96	0
TAP	12	96	2
TAP	12	144	7
TAP	12	168	7
TAP	12	192	0
TAP	12	192	6
TAP	12	240	1
TAP	12	288	0
TAP	12	288	2
TAP	12	336	7
TAP	12	360	7
TAP	13	0	0
TAP	13	0	6
TAP	13	48	5
TAP	13	96	0
TAP	13	96	6
TAP	13	144	1
TAP	13	168	1
TAP	13	192	0
TAP	13	192	2
TAP	13	240	7
BRK	13	288	1
BRK	13	288	6
STR	14	0	0
SCR	14	0	0	96	48	3
TAP	14	48	4
TAP	14	96	5
TAP	14	144	4
STR	14	192	0
SCL	14	192	0	96	48	5
TAP	14	240	4
TAP	14	288	3
TAP	14	336	4
STR	15	0	0
SCR	15	0	0	96	48	3
TAP	15	48	4
TAP	15	96	5
TAP	15	144	4
TAP	15	192	0
TAP	15	240	4
TAP	15	288	2
TAP	15	336	7
TAP	15	360	0
STR	16	0	7
SCL	16	0	7	96	48	4
TAP	16	48	3
TAP	16	96	2
TAP	16	144	3
STR	16	192	7
SCR	16	192	7	96	48	2
TAP	16	240	3
TAP	16	288	4
TAP	16	336	3
STR	17	0	7
SCL	17	0	7	96	48	4
TAP	17	48	3
TAP	17	96	2
TAP	17	144	3
TAP	17	192	7
TAP	17	240	3
TAP	17	288	3
TAP	17	312	4
TAP	17	336	3
TAP	17	360	4
TAP	18	48	0
TAP	18	96	1
STR	18	144	0
SCR	18	144	0	96	96	3
TAP	18	240	7
TAP	18	288	6
STR	18	336	7
SCL	18	336	7	96	96	4
TAP	19	48	0
TAP	19	96	1
STR	19	144	0
SCR	19	144	0	96	96	3
TAP	19	240	7
TAP	19	288	6
STR	19	336	7
SCL	19	336	7	96	144	1
TAP	20	0	7
TAP	20	144	0
HLD	20	192	0	144
TAP	20	336	7
STR	21	0	7
SI_	21	0	7	96	48	3
TAP	21	48	7
STR	21	96	0
SI_	21	96	0	96	48	4
TAP	21	144	0
TAP	21	288	3
TAP	21	288	4
TAP	21	336	1
STR	22	0	1
SCL	22	0	1	96	48	6
TAP	22	48	1
STR	22	96	5
SUR	22	96	5	96	48	2
TAP	22	144	5
TAP	22	288	0
TAP	22	336	7
STR	23	0	6
SCR	23	0	6	96	48	1
TAP	23	48	6
STR	23	96	2
SUL	23	96	2	96	48	5
TAP	23	144	2
TAP	23	288	3
TAP	23	312	3
TAP	23	336	4
TAP	23	360	4
TAP	24	0	2
TAP	24	0	5
TAP	24	96	4
TAP	24	144	5
TAP	24	192	6
TAP	24	240	7
TAP	24	288	0
TAP	24	336	1
STR	25	0	2
SCL	25	0	2	96	96	5
TAP	25	48	3
TAP	25	96	4
TAP	25	144	4
TAP	25	192	3
TAP	25	288	3
TAP	25	336	4
STR	26	0	5
SCL	26	0	5	96	48	2
TAP	26	48	5
STR	26	96	1
SUR	26	96	1	96	48	6
TAP	26	144	1
TAP	26	288	7
TAP	26	336	0
STR	27	0	2
SCR	27	0	2	96	48	5
TAP	27	48	2
STR	27	96	6
SUL	27	96	6	96	48	1
TAP	27	144	6
TAP	27	288	4
TAP	27	312	4
TAP	27	336	3
TAP	27	360	3
TAP	28	0	2
TAP	28	0	5
TAP	28	96	1
TAP	28	144	2
TAP	28	192	3
TAP	28	240	4
STR	28	288	5
SSR	28	288	5	96	96	1
TAP	28	336	5
TAP	29	144	1
STR	29	192	1
SCR	29	192	1	96	48	4
TAP	29	240	1
STR	29	288	7
SCL	29	288	7	96	48	4
TAP	29	336	7
STR	30	0	0
SI_	30	0	0	96	48	4
TAP	30	48	0
STR	30	96	7
SI_	30	96	7	96	48	3
TAP	30	144	7
BRK	30	288	3
BRK	30	288	4
TAP	31	0	1
TAP	31	48	0
STR	31	48	7
SI_	31	48	7	96	48	3
TAP	31	96	6
STR	31	144	0
SI_	31	144	0	96	48	4
TAP	31	144	7
TAP	31	192	1
TAP	31	240	0
STR	31	240	7
SI_	31	240	7	96	48	3
TAP	31	288	6
STR	31	336	0
SI_	31	336	0	96	48	4
TAP	31	336	7
TAP	32	0	1
TAP	32	48	0
STR	32	48	7
SI_	32	48	7	96	48	3
TAP	32	96	6
STR	32	144	0
SI_	32	144	0	96	48	4
TAP	32	144	7
TAP	32	192	1
TAP	32	240	0
TAP	32	240	7
TAP	32	288	6
TAP	32	336	0
TAP	32	336	7
TAP	33	0	1
TAP	33	48	0
STR	33	48	7
SI_	33	48	7	96	48	3
TAP	33	96	6
STR	33	144	1
SI_	33	144	1	96	48	5
TAP	33	144	7
TAP	33	192	2
TAP	33	240	1
TAP	33	240	7
TAP	33	288	6
TAP	33	336	0
TAP	33	336	1
TAP	34	0	3
TAP	34	0	6
TAP	34	48	6
TAP	34	48	7
TAP	34	96	1
TAP	34	96	4
TAP	34	144	0
TAP	34	144	1
TAP	34	192	3
TAP	34	192	6
TAP	34	240	4
TAP	34	288	2
TAP	34	336	1
STR	34	336	7
SCL	34	336	7	96	48	4
TAP	35	0	6
STR	35	48	0
SCR	35	48	0	96	48	3
TAP	35	48	7
TAP	35	96	1
TAP	35	144	0
STR	35	144	7
SCL	35	144	7	96	48	4
TAP	35	192	6
STR	35	240	0
SCR	35	240	0	96	48	3
TAP	35	240	7
TAP	35	288	1
TAP	35	336	0
STR	35	336	7
SCL	35	336	7	96	48	4
TAP	36	0	6
STR	36	48	0
SCR	36	48	0	96	48	3
TAP	36	48	7
TAP	36	96	1
TAP	36	144	0
STR	36	144	7
SCL	36	144	7	96	48	4
TAP	36	192	6
TAP	36	240	0
TAP	36	240	7
TAP	36	288	1
TAP	36	336	0
TAP	36	336	7
TAP	37	0	6
STR	37	48	0
SI_	37	48	0	96	48	4
TAP	37	48	7
TAP	37	96	1
TAP	37	144	0
STR	37	144	6
SI_	37	144	6	96	48	2
TAP	37	192	5
TAP	37	240	0
TAP	37	240	6
TAP	37	288	1
TAP	37	336	4
TAP	37	336	5
TAP	38	0	2
TAP	38	0	7
TAP	38	48	2
TAP	38	48	3
TAP	38	96	0
TAP	38	96	5
TAP	38	144	0
TAP	38	144	7
TAP	38	192	3
TAP	38	192	4
TAP	38	240	3
TAP	38	240	4
BRK	38	288	1
BRK	38	288	6
TAP	38	336	7
TAP	38	360	0
TAP	39	0	7
TAP	39	48	6
TAP	39	96	5
TAP	39	144	2
TAP	39	168	3
TAP	39	192	1
TAP	39	216	4
HLD	39	240	7	48
TAP	39	288	6
TAP	39	312	7
TAP	39	336	5
TAP	39	360	0
TAP	40	0	4
TAP	40	24	1
HLD	40	48	3	48
TAP	40	96	1
TAP	40	120	0
TAP	40	144	2
HLD	40	168	7	48
TAP	40	216	6
TAP	40	264	0
TAP	40	264	5
TAP	40	312	1
TAP	40	336	4
TAP	40	360	2
TAP	41	0	3
TAP	41	48	3
TAP	41	48	4
TAP	41	96	4
TAP	41	96	5
TAP	41	144	1
TAP	41	168	0
TAP	41	192	2
TAP	41	216	7
TAP	41	240	3
TAP	41	264	6
TAP	41	288	4
TAP	41	336	2
TAP	41	336	3
TAP	42	0	3
TAP	42	0	4
TAP	42	48	4
TAP	42	48	6
TAP	42	96	3
TAP	42	96	4
TAP	42	144	2
TAP	42	144	3
TAP	42	192	4
TAP	42	192	5
TAP	42	240	1
TAP	42	240	3
TAP	42	288	4
TAP	42	288	6
TAP	42	336	0
TAP	42	336	7
TAP	43	0	3
HLD	43	48	3	96
TAP	43	96	4
HLD	43	144	4	96
TAP	43	192	3
HLD	43	240	3	96
TAP	43	288	4
HLD	43	336	4	96
TAP	44	0	2
HLD	44	48	2	96
TAP	44	96	5
HLD	44	144	5	96
TAP	44	192	2
HLD	44	240	2	96
TAP	44	288	5
HLD	44	336	5	96
TAP	45	0	3
HLD	45	48	3	96
TAP	45	96	5
HLD	45	144	5	96
TAP	45	192	2
HLD	45	240	2	96
TAP	45	288	4
HLD	45	336	4	96
TAP	46	0	3
HLD	46	48	3	96
TAP	46	96	4
TAP	46	144	4
TAP	46	192	3
TAP	46	192	4
TAP	46	240	3
TAP	46	240	4
TAP	46	288	2
TAP	46	288	5
TAP	47	0	1
TAP	47	0	3
TAP	47	48	2
TAP	47	72	2
TAP	47	96	3
TAP	47	144	1
TAP	47	192	4
TAP	47	192	6
TAP	47	240	5
TAP	47	264	5
TAP	47	288	4
TAP	47	336	6
TAP	48	0	1
TAP	48	0	3
TAP	48	48	2
TAP	48	72	2
TAP	48	96	3
TAP	48	144	1
TAP	48	192	4
TAP	48	192	6
TAP	48	240	5
TAP	48	264	5
TAP	48	288	4
TAP	48	336	6
TAP	49	0	0
TAP	49	0	2
TAP	49	48	1
TAP	49	72	1
TAP	49	96	2
TAP	49	144	0
TAP	49	192	5
TAP	49	192	7
TAP	49	240	6
TAP	49	264	6
TAP	49	288	5
TAP	49	336	7
TAP	50	0	0
TAP	50	0	2
TAP	50	48	1
TAP	50	72	1
TAP	50	96	2
TAP	50	144	0
TAP	50	192	3
TAP	50	192	4
TAP	50	240	3
TAP	50	240	4
TAP	50	288	1
TAP	50	288	6
STR	51	0	5
SI_	51	0	5	96	48	1
TAP	51	48	5
STR	51	96	2
SI_	51	96	2	96	48	7
TAP	51	144	2
STR	51	192	4
SI_	51	192	4	96	48	0
TAP	51	240	4
STR	51	288	3
SCL	51	288	3	96	144	4
TAP	51	336	3
TAP	52	192	0
TAP	52	192	7
TAP	52	240	0
TAP	52	240	7
BRK	52	288	1
BRK	52	288	6
TAP	53	0	0
STR	53	48	6
SCL	53	48	6	96	48	3
TAP	53	48	7
TAP	53	96	5
TAP	53	144	6
STR	53	144	7
SCR	53	144	7	96	48	2
TAP	53	192	0
STR	53	240	6
SCL	53	240	6	96	48	3
TAP	53	240	7
TAP	53	288	5
TAP	53	336	6
STR	53	336	7
SCR	53	336	7	96	48	2
TAP	54	0	0
STR	54	48	6
SCL	54	48	6	96	48	3
TAP	54	48	7
TAP	54	96	5
TAP	54	144	6
STR	54	144	7
SCR	54	144	7	96	48	2
TAP	54	192	0
TAP	54	240	6
TAP	54	240	7
TAP	54	288	5
TAP	54	336	0
STR	54	336	1
SCR	54	336	1	96	48	4
TAP	55	0	2
STR	55	48	0
SCL	55	48	0	96	48	5
TAP	55	48	1
TAP	55	96	7
TAP	55	144	0
STR	55	144	1
SCR	55	144	1	96	48	4
TAP	55	192	2
STR	55	240	0
SCL	55	240	0	96	48	5
TAP	55	240	1
TAP	55	288	7
TAP	55	336	0
STR	55	336	1
SCR	55	336	1	96	48	4
TAP	56	0	2
STR	56	48	0
SCL	56	48	0	96	48	5
TAP	56	48	1
TAP	56	96	7
TAP	56	144	0
TAP	56	144	1
TAP	56	192	2
TAP	56	240	6
TAP	56	240	7
BRK	56	288	1
BRK	56	288	4
TAP	57	0	1
TAP	57	48	0
STR	57	48	7
SCL	57	48	7	96	48	4
TAP	57	96	6
STR	57	144	0
SCR	57	144	0	96	48	3
TAP	57	144	7
TAP	57	192	1
TAP	57	240	0
STR	57	240	7
SCL	57	240	7	96	48	4
TAP	57	288	6
STR	57	336	3
SCL	57	336	3	96	48	0
TAP	57	336	7
TAP	58	0	2
TAP	58	48	3
STR	58	48	7
SCL	58	48	7	96	48	4
TAP	58	96	6
TAP	58	144	2
TAP	58	144	7
TAP	58	192	2
TAP	58	240	3
TAP	58	288	1
TAP	58	288	4
TAP	59	0	2
TAP	59	48	3
TAP	59	96	5
TAP	59	144	4
TAP	59	192	2
TAP	59	240	3
TAP	59	288	5
TAP	59	336	3
TAP	59	360	4
TAP	60	0	2
TAP	60	24	5
TAP	60	48	3
TAP	60	72	4
TAP	60	96	2
TAP	60	120	5
TAP	60	144	3
TAP	60	192	3
TAP	60	192	4
TAP	60	240	3
TAP	60	240	4
BRK	60	288	1
BRK	60	288	6
TAP	61	0	2
TAP	61	48	1
STR	61	48	6
SCL	61	48	6	96	48	3
TAP	61	96	5
STR	61	144	0
SI_	61	144	0	96	48	4
TAP	61	144	6
TAP	61	192	1
TAP	61	240	0
STR	61	240	7
SI_	61	240	7	96	48	3
TAP	61	288	6
STR	61	336	1
SCR	61	336	1	96	48	4
TAP	61	336	7
TAP	62	0	2
TAP	62	48	1
STR	62	48	7
SI_	62	48	7	96	48	3
TAP	62	96	6
STR	62	144	0
SI_	62	144	0	96	48	4
TAP	62	144	7
TAP	62	192	1
TAP	62	240	0
STR	62	240	6
SCL	62	240	6	96	48	3
TAP	62	288	5
STR	62	336	0
SI_	62	336	0	96	48	4
TAP	62	336	6
TAP	63	0	1
TAP	63	48	0
STR	63	48	7
SI_	63	48	7	96	48	3
TAP	63	96	6
STR	63	144	1
SCR	63	144	1	96	48	4
TAP	63	144	7
TAP	63	192	2
TAP	63	240	1
STR	63	240	7
SI_	63	240	7	96	48	3
TAP	63	288	6
STR	63	336	0
SI_	63	336	0	96	48	4
TAP	63	336	7
TAP	64	0	1
TAP	64	48	0
TAP	64	48	7
TAP	64	96	5
TAP	64	144	3
TAP	64	144	4
TAP	64	192	0
TAP	64	192	7
TAP	64	240	1
TAP	64	240	6
BRK	64	288	2
BRK	64	288	5
TAP	65	0	4
TAP	65	48	5
TAP	65	96	3
TAP	65	144	2
TAP	65	192	6
TAP	65	240	4
TAP	65	288	1
TAP	65	336	3
TAP	66	0	5
TAP	66	48	4
TAP	66	96	2
TAP	66	144	3
TAP	66	192	4
TAP	66	240	3
TAP	66	240	4
TAP	66	288	3
TAP	66	288	4

T_REC_TAP	572
T_REC_BRK	14
T_REC_XTP	0
T_REC_HLD	21
T_REC_XHO	0
T_REC_STR	76
T_REC_BST	0
T_REC_XST	0
T_REC_TTP	0
T_REC_THO	0
T_REC_SLD	76
T_REC_ALL	759
T_NUM_TAP	648
T_NUM_BRK	14
T_NUM_HLD	21
T_NUM_SLD	76
T_NUM_ALL	759
T_JUDGE_TAP	662
T_JUDGE_HLD	44
T_JUDGE_SLD	76
T_JUDGE_ALL	782
TTM_EACHPAIRS	164
TTM_SCR_TAP	324000
TTM_SCR_BRK	36400
TTM_SCR_HLD	21000
TTM_SCR_SLD	114000
TTM_SCR_ALL	495400
TTM_SCR_S	479200
TTM_SCR_SS	494000
TTM_RAT_ACV	10028

