VERSION	0.00.00	1.03.00
FES_MODE	0
BPM_DEF	120.000	120.000	120.000	120.000
MET_DEF	4	4
RESOLUTION	384
CLK_DEF	384
COMPATIBLE_CODE	MA2

BPM	0	0	120.000
MET	0	0	4	4

TAP	1	0	7
TAP	1	96	7
TAP	1	192	3
TAP	1	240	4
TAP	1	288	3
TAP	1	336	4
TAP	2	0	2
TAP	2	96	2
TAP	2	96	3
TAP	2	192	1
TAP	2	240	0
TAP	2	288	1
TAP	3	0	5
TAP	3	96	4
TAP	3	96	5
TAP	3	192	6
TAP	3	240	7
TAP	3	288	6
TAP	4	0	1
TAP	4	96	0
TAP	4	96	1
TAP	4	192	2
TAP	4	240	3
TAP	4	288	2
TAP	5	0	3
TAP	5	0	5
TAP	5	96	2
TAP	5	96	4
HLD	5	192	3	96
HLD	5	192	5	96
TAP	6	0	6
TAP	6	48	7
TAP	6	96	6
TAP	6	144	7
TAP	6	192	5
TAP	6	240	4
TAP	6	288	5
TAP	6	336	4
TAP	7	0	3
TAP	7	48	2
TAP	7	96	1
TAP	7	144	0
HLD	7	192	7	96
TAP	7	288	0
TAP	8	0	1
TAP	8	48	0
TAP	8	96	1
TAP	8	144	0
TAP	8	192	2
TAP	8	240	3
TAP	8	288	2
TAP	8	336	3
TAP	9	0	4
TAP	9	48	5
TAP	9	96	6
TAP	9	144	7
HLD	9	192	0	96
TAP	9	288	7
TAP	10	0	6
TAP	10	48	7
TAP	10	96	5
TAP	10	144	0
TAP	10	192	4
TAP	10	240	1
TAP	10	288	3
TAP	10	336	2
TAP	11	0	5
TAP	11	48	4
TAP	11	96	6
TAP	11	144	3
STR	11	192	7
SI_	11	192	7	96	36	3
TAP	11	288	1
TAP	12	0	1
TAP	12	48	0
TAP	12	96	2
TAP	12	144	7
TAP	12	192	3
TAP	12	240	6
TAP	12	288	4
TAP	12	336	5
TAP	13	0	2
TAP	13	48	3
TAP	13	96	1
TAP	13	144	4
STR	13	192	0
SI_	13	192	0	96	36	4
BRK	13	288	6
TAP	14	0	3
TAP	14	96	2
TAP	14	96	4
TAP	14	192	4
TAP	14	288	3
TAP	14	288	5
HLD	15	0	2	96
TAP	15	96	0
TAP	15	192	7
TAP	15	240	6
TAP	15	288	5
TAP	15	336	4
TAP	16	0	3
TAP	16	96	1
TAP	16	96	4
TAP	16	192	4
TAP	16	288	3
TAP	16	288	6
HLD	17	0	4	96
HLD	17	96	2	96
HLD	17	192	0	96
TAP	17	288	7
STR	18	0	0
SCR	18	0	0	96	36	3
TAP	18	48	6
TAP	18	96	6
STR	18	192	7
SCL	18	192	7	96	36	4
TAP	18	240	1
TAP	18	288	1
STR	19	0	1
SUR	19	0	1	96	36	5
TAP	19	48	7
TAP	19	96	7
STR	19	192	6
SUL	19	192	6	96	36	2
TAP	19	240	0
TAP	19	288	0
HLD	20	0	0	96
HLD	20	96	6	96
HLD	20	192	4	96
TAP	20	288	3
TAP	21	0	2
TAP	21	0	4
TAP	21	96	3
TAP	21	96	6
TAP	21	192	0
TAP	21	192	5
BRK	21	288	1
BRK	21	288	7
TAP	22	0	1
TAP	22	48	2
TAP	22	96	3
TAP	22	144	4
TAP	22	192	5
TAP	22	192	6
TAP	22	288	2
TAP	22	288	5
TAP	23	0	6
TAP	23	48	5
TAP	23	96	4
TAP	23	144	3
TAP	23	192	1
TAP	23	192	2
TAP	23	288	2
TAP	23	288	5
STR	24	0	1
SCR	24	0	1	96	36	4
HLD	24	0	7	96
HLD	24	192	0	96
STR	24	192	6
SCL	24	192	6	96	36	3
HLD	25	0	2	96
HLD	25	96	3	96
TAP	25	192	4
TAP	25	288	2
TAP	25	288	5
TAP	26	0	2
TAP	26	48	1
TAP	26	96	0
TAP	26	144	7
TAP	26	192	5
TAP	26	192	6
TAP	26	288	1
TAP	26	288	6
TAP	27	0	5
TAP	27	48	6
TAP	27	96	7
TAP	27	144	0
TAP	27	192	1
TAP	27	192	2
TAP	27	288	1
TAP	27	288	6
STR	28	0	2
SCL	28	0	2	96	36	7
HLD	28	0	4	96
HLD	28	192	3	96
STR	28	192	5
SCR	28	192	5	96	36	0
HLD	29	0	1	96
HLD	29	96	3	96
HLD	29	192	5	96
TAP	29	288	7
TAP	30	0	6
TAP	30	0	7
TAP	30	96	4
TAP	30	96	5
TAP	30	192	2
TAP	30	192	3
BRK	30	288	0
BRK	30	288	1
TAP	31	0	3
TAP	31	48	3
TAP	31	96	5
TAP	31	144	5
TAP	31	192	6
TAP	31	192	7
TAP	31	240	6
TAP	31	240	7
TAP	31	288	0
TAP	31	288	5
TAP	32	0	4
TAP	32	48	4
TAP	32	96	2
TAP	32	144	2
TAP	32	192	0
TAP	32	192	1
TAP	32	240	0
TAP	32	240	1
TAP	32	288	2
TAP	32	288	7
TAP	33	0	3
TAP	33	48	3
TAP	33	96	5
TAP	33	144	5
TAP	33	192	0
TAP	33	192	6
TAP	33	240	0
TAP	33	240	6
TAP	33	288	1
TAP	33	288	7
HLD	34	0	5	96
HLD	34	96	4	96
HLD	34	192	3	96
BRK	34	288	2
TAP	35	0	0
TAP	35	48	0
TAP	35	96	6
TAP	35	144	6
TAP	35	192	4
TAP	35	192	5
TAP	35	240	4
TAP	35	240	5
TAP	35	288	3
TAP	35	288	6
TAP	36	0	7
TAP	36	48	7
TAP	36	96	1
TAP	36	144	1
TAP	36	192	2
TAP	36	192	3
TAP	36	240	2
TAP	36	240	3
TAP	36	288	1
TAP	36	288	4
TAP	37	0	0
TAP	37	48	0
TAP	37	96	6
TAP	37	144	6
TAP	37	192	3
TAP	37	192	5
TAP	37	240	3
TAP	37	240	5
TAP	37	288	2
TAP	37	288	4
HLD	38	0	2	96
HLD	38	96	3	96
HLD	38	192	4	96
BRK	38	288	5
TAP	39	0	6
TAP	39	48	7
TAP	39	96	6
TAP	39	144	0
TAP	39	192	5
TAP	39	240	3
TAP	39	288	4
TAP	40	0	1
TAP	40	48	0
TAP	40	96	1
TAP	40	144	7
TAP	40	192	2
TAP	40	240	4
TAP	40	288	3
TAP	41	0	3
TAP	41	0	4
TAP	41	48	2
TAP	41	96	3
TAP	41	96	4
TAP	41	144	5
TAP	41	192	3
TAP	41	192	4
TAP	41	240	1
TAP	41	288	3
TAP	41	288	4
TAP	41	336	6
TAP	42	0	3
TAP	42	0	4
TAP	42	48	2
TAP	42	96	3
TAP	42	96	4
TAP	42	144	5
STR	42	192	3
SI_	42	192	3	96	36	0
STR	42	192	4
SI_	42	192	4	96	36	7
TAP	43	0	0
TAP	43	96	1
TAP	43	192	2
TAP	43	288	3
HLD	44	0	4	192
TAP	44	336	5
HLD	45	0	4	192
HLD	45	0	5	192
TAP	46	0	6
TAP	46	96	7
HLD	46	192	0	96
TAP	46	288	7
TAP	47	0	0
TAP	47	96	1
TAP	47	192	2
TAP	47	288	3
STR	48	0	4
SCR	48	0	4	96	96	0
TAP	48	336	1
STR	49	0	1
SCR	49	0	1	96	96	5
HLD	50	0	5	96
HLD	50	96	4	96
HLD	50	192	3	96
BRK	50	288	2
TAP	51	0	2
TAP	51	48	2
TAP	51	96	0
TAP	51	144	0
TAP	51	192	6
TAP	51	192	7
TAP	51	240	6
TAP	51	240	7
TAP	51	288	0
TAP	51	288	5
HLD	52	0	6	96
HLD	52	0	7	96
TAP	52	192	3
TAP	52	192	5
TAP	52	240	2
TAP	52	240	4
TAP	52	288	1
TAP	52	288	3
TAP	53	0	6
TAP	53	48	6
TAP	53	96	4
TAP	53	144	4
TAP	53	192	2
TAP	53	192	3
TAP	53	240	2
TAP	53	240	3
TAP	53	288	1
TAP	53	288	4
STR	54	0	0
SI_	54	0	0	96	36	3
STR	54	96	7
SI_	54	96	7	96	36	4
STR	54	192	0
SI_	54	192	0	96	36	3
TAP	55	0	5
TAP	55	48	5
TAP	55	96	7
TAP	55	144	7
TAP	55	192	0
TAP	55	192	1
TAP	55	240	0
TAP	55	240	1
TAP	55	288	2
TAP	55	288	7
TAP	56	0	2
TAP	56	48	2
TAP	56	96	4
TAP	56	144	4
BRK	56	192	5
BRK	56	192	7
BRK	56	240	0
BRK	56	240	6
BRK	56	288	1
BRK	56	288	7
TAP	57	0	1
TAP	57	48	1
TAP	57	96	3
TAP	57	144	3
TAP	57	192	4
TAP	57	192	5
TAP	57	240	4
TAP	57	240	5
TAP	57	288	3
TAP	57	288	6
STR	58	0	7
SI_	58	0	7	96	36	4
STR	58	96	0
SI_	58	96	0	96	36	3
STR	58	192	7
SI_	58	192	7	96	36	4
TAP	59	0	1
TAP	59	48	2
TAP	59	96	3
TAP	59	144	4
TAP	59	192	0
TAP	59	240	7
TAP	59	288	6
TAP	59	336	5
TAP	60	0	3
TAP	60	48	4
TAP	60	96	5
TAP	60	144	6
TAP	60	192	0
TAP	60	192	7
TAP	60	240	0
TAP	60	240	7
TAP	60	288	1
TAP	60	288	6
TAP	61	0	6
TAP	61	48	7
TAP	61	96	6
TAP	61	144	3
TAP	61	144	5
TAP	61	192	1
TAP	61	240	0
TAP	61	288	1
TAP	61	336	2
TAP	61	336	4
TAP	62	0	5
TAP	62	48	2
TAP	62	96	6
TAP	62	144	1
STR	62	192	0
SI_	62	192	0	96	36	3
STR	62	192	7
SI_	62	192	7	96	36	4
TAP	63	0	5
TAP	63	48	4
TAP	63	96	5
TAP	63	144	0
TAP	63	144	6
TAP	63	192	2
TAP	63	240	3
TAP	63	288	2
TAP	63	336	1
TAP	63	336	7
TAP	64	0	6
TAP	64	48	1
TAP	64	96	5
TAP	64	144	2
TAP	64	192	3
TAP	64	192	4
TAP	64	240	2
TAP	64	240	5
BRK	64	288	1
BRK	64	288	6
HLD	65	0	7	192
TAP	65	96	0
HLD	65	192	1	192
TAP	65	288	6
HLD	66	0	5	192
TAP	66	96	2
HLD	66	192	3	96
TAP	66	240	4
TAP	66	288	4

T_REC_TAP	364
T_REC_BRK	16
T_REC_XTP	0
T_REC_HLD	39
T_REC_XHO	0
T_REC_STR	22
T_REC_BST	0
T_REC_XST	0
T_REC_TTP	0
T_REC_THO	0
T_REC_SLD	22
T_REC_ALL	463
T_NUM_TAP	386
T_NUM_BRK	16
T_NUM_HLD	39
T_NUM_SLD	22
T_NUM_ALL	463
T_JUDGE_TAP	402
T_JUDGE_HLD	90
T_JUDGE_SLD	22
T_JUDGE_ALL	514
TTM_EACHPAIRS	87
TTM_SCR_TAP	193000
TTM_SCR_BRK	41600
TTM_SCR_HLD	39000
TTM_SCR_SLD	33000
TTM_SCR_ALL	306600
TTM_SCR_S	295850
TTM_SCR_SS	305000
TTM_RAT_ACV	10052

