VERSION	0.00.00	1.03.00
FES_MODE	0
BPM_DEF	120.000	120.000	120.000	120.000
MET_DEF	4	4
RESOLUTION	384
CLK_DEF	384
COMPATIBLE_CODE	MA2

BPM	0	0	120.000
MET	0	0	4	4

TAP	2	0	2
TAP	2	0	3
TAP	2	96	4
TAP	2	96	5
TAP	2	192	3
TAP	2	240	4
TAP	2	288	3
TAP	3	0	4
TAP	3	0	5
TAP	3	96	2
TAP	3	96	3
TAP	3	192	1
TAP	3	240	0
TAP	3	288	7
TAP	4	0	0
TAP	4	0	1
TAP	4	96	6
TAP	4	96	7
TAP	4	192	0
TAP	4	240	7
TAP	4	288	0
TAP	5	0	6
TAP	5	0	7
TAP	5	96	0
TAP	5	96	1
TAP	5	192	6
TAP	5	240	7
TAP	5	288	0
HLD	6	0	2	96
TAP	6	96	3
HLD	6	192	5	96
TAP	6	288	4
HLD	7	0	2	96
HLD	7	96	5	96
HLD	7	192	3	96
TAP	7	288	4
HLD	8	0	1	96
TAP	8	96	0
HLD	8	192	6	96
TAP	8	288	7
HLD	9	0	1	96
HLD	9	96	6	96
HLD	9	192	0	96
TAP	9	288	7
TAP	10	0	2
TAP	10	96	1
TAP	10	96	3
TAP	10	192	5
TAP	10	288	4
TAP	10	288	6
TAP	11	0	2
TAP	11	0	3
TAP	11	96	4
TAP	11	96	5
TAP	11	192	0
TAP	11	192	6
TAP	11	288	1
TAP	11	288	7
TAP	12	0	6
TAP	12	96	5
TAP	12	96	7
TAP	12	192	1
TAP	12	288	0
TAP	12	288	2
TAP	13	0	6
TAP	13	0	7
TAP	13	96	0
TAP	13	96	1
TAP	13	192	7
TAP	13	240	7
TAP	13	288	0
TAP	13	288	7
TAP	14	0	1
TAP	14	96	2
TAP	14	192	3
TAP	14	240	4
TAP	14	288	3
TAP	14	336	4
HLD	15	0	3	192
TAP	15	192	5
TAP	15	288	2
TAP	15	288	4
TAP	16	0	5
TAP	16	96	6
TAP	16	192	7
TAP	16	240	0
TAP	16	288	7
TAP	16	336	0
HLD	17	0	7	96
TAP	17	96	0
TAP	17	192	1
TAP	17	192	6
TAP	17	288	3
TAP	17	288	4
HLD	18	0	5	96
TAP	18	96	4
HLD	18	192	2	96
TAP	18	288	3
HLD	19	0	1	96
TAP	19	96	0
HLD	19	192	6	96
TAP	19	288	7
HLD	20	0	4	192
TAP	20	192	2
TAP	20	288	3
TAP	20	288	5
TAP	21	0	4
TAP	21	48	3
TAP	21	96	4
TAP	21	144	3
TAP	21	192	4
TAP	21	288	1
TAP	21	288	6
TAP	22	0	2
TAP	22	96	3
TAP	22	192	4
TAP	22	192	5
TAP	22	288	6
TAP	23	0	5
TAP	23	96	4
TAP	23	192	2
TAP	23	192	3
TAP	23	288	4
TAP	23	336	3
TAP	24	0	2
TAP	24	0	5
HLD	24	192	1	96
TAP	24	288	0
HLD	24	383	6	97
TAP	25	96	7
TAP	25	192	0
TAP	25	192	7
TAP	25	288	1
TAP	25	336	1
TAP	26	0	1
TAP	26	96	2
TAP	26	144	2
TAP	26	192	2
TAP	26	288	3
TAP	26	336	3
TAP	27	0	3
TAP	27	96	4
TAP	27	144	4
TAP	27	192	4
TAP	27	288	5
TAP	27	336	5
TAP	28	0	5
TAP	28	96	0
TAP	28	96	6
TAP	28	192	1
TAP	28	192	7
TAP	28	288	0
TAP	28	336	7
TAP	29	0	1
TAP	29	0	6
TAP	29	192	2
TAP	29	192	3
TAP	29	288	4
TAP	29	288	5
TAP	30	0	3
TAP	30	48	4
TAP	30	96	3
TAP	30	144	4
TAP	30	192	3
BRK	30	288	3
BRK	30	288	4
TAP	31	0	0
TAP	31	0	1
TAP	31	96	2
TAP	31	96	3
TAP	31	192	5
TAP	31	240	4
TAP	31	288	5
TAP	32	0	6
TAP	32	0	7
TAP	32	96	4
TAP	32	96	5
TAP	32	192	2
TAP	32	240	3
TAP	32	288	2
TAP	33	0	0
TAP	33	0	1
TAP	33	96	6
TAP	33	96	7
TAP	33	192	5
TAP	33	240	4
TAP	33	288	5
TAP	34	0	6
TAP	34	0	7
TAP	34	96	0
TAP	34	96	1
TAP	34	192	2
TAP	34	240	3
TAP	34	288	2
TAP	35	0	4
TAP	35	0	5
TAP	35	96	2
TAP	35	96	3
TAP	35	192	1
TAP	35	240	0
TAP	35	288	1
TAP	36	0	2
TAP	36	0	3
TAP	36	96	4
TAP	36	96	5
TAP	36	192	6
TAP	36	240	7
TAP	36	288	6
TAP	37	0	4
TAP	37	0	5
TAP	37	96	3
TAP	37	96	6
TAP	37	192	7
TAP	37	240	0
TAP	37	288	7
TAP	38	0	2
TAP	38	0	3
TAP	38	96	1
TAP	38	96	4
TAP	38	192	0
TAP	38	240	7
TAP	38	288	0
STR	39	0	1
SI_	39	0	1	96	48	4
STR	39	192	6
SI_	39	192	6	96	48	3
TAP	40	0	2
TAP	40	96	1
TAP	40	96	3
TAP	40	192	0
TAP	40	240	0
TAP	40	288	0
TAP	40	288	7
STR	41	0	6
SI_	41	0	6	96	48	3
STR	41	192	1
SI_	41	192	1	96	48	4
TAP	42	0	5
TAP	42	96	4
TAP	42	96	6
TAP	42	192	7
TAP	42	240	7
TAP	42	288	0
TAP	42	336	0
TAP	43	0	0
TAP	43	0	7
TAP	43	192	1
TAP	43	192	2
TAP	44	0	5
TAP	44	0	6
TAP	44	192	3
TAP	44	192	4
TAP	44	336	2
TAP	45	0	2
TAP	45	0	3
TAP	45	192	6
TAP	45	192	7
TAP	46	0	0
TAP	46	0	5
TAP	46	96	1
TAP	46	96	4
TAP	46	192	2
TAP	46	240	3
TAP	46	288	2
TAP	47	0	0
TAP	47	0	7
TAP	47	192	5
TAP	47	192	6
TAP	48	0	1
TAP	48	0	2
TAP	48	192	3
TAP	48	192	4
TAP	48	336	5
TAP	49	0	4
TAP	49	0	5
TAP	49	192	0
TAP	49	192	1
TAP	50	0	2
TAP	50	0	7
TAP	50	96	3
TAP	50	96	6
TAP	50	192	5
TAP	50	240	4
TAP	50	288	5
HLD	51	0	2	96
HLD	51	96	3	96
HLD	51	192	4	96
HLD	51	288	5	96
HLD	52	0	3	192
TAP	52	192	4
TAP	52	240	3
BRK	52	288	2
BRK	52	288	5
TAP	53	0	0
TAP	53	0	1
TAP	53	96	2
TAP	53	96	3
TAP	53	192	5
TAP	53	240	4
TAP	53	288	5
TAP	54	0	6
TAP	54	0	7
TAP	54	96	4
TAP	54	96	5
TAP	54	192	2
TAP	54	240	3
TAP	54	288	2
TAP	55	0	0
TAP	55	0	1
TAP	55	96	2
TAP	55	96	7
TAP	55	192	6
TAP	55	240	5
TAP	55	288	3
TAP	55	288	4
TAP	56	0	6
TAP	56	0	7
TAP	56	96	0
TAP	56	96	5
TAP	56	192	1
TAP	56	240	2
TAP	56	288	3
TAP	56	288	4
TAP	57	0	2
TAP	57	0	5
TAP	57	96	1
TAP	57	96	6
TAP	57	192	0
TAP	57	240	7
TAP	57	288	0
TAP	58	0	1
TAP	58	0	6
TAP	58	96	2
TAP	58	96	5
TAP	58	192	3
TAP	58	192	4
TAP	58	240	3
TAP	58	240	4
TAP	58	288	2
TAP	58	288	5
HLD	59	0	1	96
TAP	59	96	0
HLD	59	192	6	96
TAP	59	288	7
HLD	60	0	3	96
TAP	60	96	4
STR	60	192	0
SI_	60	192	0	96	48	3
STR	60	192	7
SI_	60	192	7	96	48	4
HLD	61	0	2	96
TAP	61	96	3
HLD	61	192	5	96
TAP	61	288	4
TAP	62	0	3
TAP	62	48	4
TAP	62	96	3
TAP	62	144	4
TAP	62	192	3
TAP	62	288	1
TAP	62	288	6
HLD	63	0	5	96
TAP	63	96	7
HLD	63	192	2	96
TAP	63	288	0
TAP	64	0	7
TAP	64	48	0
TAP	64	96	7
TAP	64	144	0
TAP	64	192	7
TAP	64	240	0
TAP	64	288	1
TAP	64	288	6
HLD	65	0	2	192
HLD	65	192	5	192
HLD	66	0	3	192
TAP	66	192	4
TAP	66	240	3
TAP	66	288	2
TAP	66	288	5

T_REC_TAP	330
T_REC_BRK	4
T_REC_XTP	0
T_REC_HLD	34
T_REC_XHO	0
T_REC_STR	6
T_REC_BST	0
T_REC_XST	0
T_REC_TTP	0
T_REC_THO	0
T_REC_SLD	6
T_REC_ALL	380
T_NUM_TAP	336
T_NUM_BRK	4
T_NUM_HLD	34
T_NUM_SLD	6
T_NUM_ALL	380
T_JUDGE_TAP	340
T_JUDGE_HLD	81
T_JUDGE_SLD	6
T_JUDGE_ALL	427
TTM_EACHPAIRS	91
TTM_SCR_TAP	168000
TTM_SCR_BRK	10400
TTM_SCR_HLD	34000
TTM_SCR_SLD	9000
TTM_SCR_ALL	221400
TTM_SCR_S	214400
TTM_SCR_SS	221000
TTM_RAT_ACV	10018

