VERSION	0.00.00	1.03.00
FES_MODE	0
BPM_DEF	120.000	120.000	120.000	120.000
MET_DEF	4	4
RESOLUTION	384
CLK_DEF	384
COMPATIBLE_CODE	MA2

BPM	0	0	120.000
MET	0	0	4	4

TAP	2	0	0
TAP	2	192	0
TAP	3	0	1
TAP	3	96	1
TAP	3	192	1
TAP	4	0	7
TAP	4	192	7
TAP	5	0	6
TAP	5	96	6
TAP	5	192	6
TAP	6	0	5
TAP	6	192	5
TAP	7	0	4
TAP	7	96	3
TAP	7	192	4
TAP	8	0	2
TAP	8	192	2
TAP	9	0	3
TAP	9	96	4
TAP	9	192	3
TAP	10	0	5
TAP	10	192	4
TAP	10	192	5
TAP	11	0	4
TAP	11	96	3
TAP	11	192	4
TAP	12	0	2
TAP	12	192	2
TAP	12	192	3
TAP	13	0	3
TAP	13	96	4
BRK	13	192	3
TAP	14	0	5
TAP	14	192	5
TAP	15	0	6
TAP	15	192	6
TAP	16	0	7
TAP	16	192	7
TAP	17	0	0
TAP	17	96	0
TAP	17	192	0
HLD	18	0	0	192
HLD	19	0	7	192
TAP	20	0	0
TAP	20	192	1
TAP	21	0	2
TAP	21	96	2
TAP	21	192	2
TAP	21	192	3
TAP	22	0	3
TAP	22	96	3
TAP	22	192	4
TAP	23	0	4
TAP	23	96	4
TAP	23	192	5
TAP	24	0	4
TAP	24	0	5
TAP	24	192	3
TAP	24	192	4
TAP	25	0	2
TAP	25	0	3
TAP	25	192	3
TAP	25	192	4
TAP	26	0	4
TAP	26	96	4
TAP	26	192	5
TAP	27	0	5
TAP	27	96	5
TAP	27	192	6
TAP	28	0	6
TAP	28	0	7
TAP	28	192	0
TAP	28	192	7
TAP	29	0	0
TAP	29	0	1
TAP	29	192	0
TAP	29	192	7
TAP	30	0	0
TAP	30	96	7
BRK	30	192	0
TAP	31	0	7
TAP	31	96	7
TAP	31	192	0
TAP	32	0	0
TAP	32	96	0
TAP	32	192	1
TAP	33	0	1
TAP	33	96	1
TAP	33	192	2
TAP	34	0	2
TAP	34	0	3
TAP	34	192	2
TAP	34	192	3
TAP	35	0	0
TAP	35	96	0
TAP	35	192	7
TAP	36	0	7
TAP	36	96	7
TAP	36	192	6
TAP	37	0	6
TAP	37	96	6
TAP	37	192	5
TAP	38	0	4
TAP	38	0	5
BRK	38	192	4
BRK	38	192	5
STR	39	0	5
SI_	39	0	5	96	288	2
TAP	40	192	1
STR	41	0	2
SI_	41	0	2	96	288	5
TAP	42	192	6
HLD	43	0	5	192
HLD	44	0	4	192
HLD	45	0	3	192
HLD	46	0	2	192
TAP	47	0	1
TAP	47	192	1
TAP	48	0	0
TAP	48	192	0
TAP	49	0	7
TAP	49	192	7
TAP	50	0	6
TAP	50	192	6
TAP	51	0	5
TAP	51	96	5
TAP	51	192	4
TAP	52	0	3
TAP	52	0	4
BRK	52	192	3
BRK	52	192	4
TAP	53	0	3
TAP	53	96	3
TAP	53	192	2
TAP	54	0	1
TAP	54	96	1
TAP	54	192	0
TAP	54	192	1
TAP	55	0	0
TAP	55	96	0
TAP	55	192	7
TAP	56	0	6
TAP	56	96	6
TAP	56	192	6
TAP	56	192	7
TAP	57	0	5
TAP	57	96	4
TAP	57	192	3
TAP	58	0	2
TAP	58	96	3
TAP	58	192	4
TAP	59	0	5
TAP	59	96	5
TAP	59	192	4
TAP	59	192	5
TAP	60	0	2
TAP	60	96	2
BRK	60	192	2
BRK	60	192	3
TAP	61	0	4
TAP	61	96	4
TAP	61	192	5
TAP	61	288	5
TAP	62	0	6
TAP	62	96	6
TAP	62	192	0
TAP	62	192	7
TAP	63	0	0
TAP	63	96	0
TAP	63	192	1
TAP	63	288	1
TAP	64	0	2
TAP	64	96	2
TAP	64	192	3
TAP	64	192	4
TAP	65	0	5
TAP	65	192	6
TAP	66	0	7
TAP	66	192	0
TAP	66	288	0

T_REC_TAP	162
T_REC_BRK	8
T_REC_XTP	0
T_REC_HLD	6
T_REC_XHO	0
T_REC_STR	2
T_REC_BST	0
T_REC_XST	0
T_REC_TTP	0
T_REC_THO	0
T_REC_SLD	2
T_REC_ALL	180
T_NUM_TAP	164
T_NUM_BRK	8
T_NUM_HLD	6
T_NUM_SLD	2
T_NUM_ALL	180
T_JUDGE_TAP	172
T_JUDGE_HLD	24
T_JUDGE_SLD	2
T_JUDGE_ALL	198
TTM_EACHPAIRS	23
TTM_SCR_TAP	82000
TTM_SCR_BRK	20800
TTM_SCR_HLD	6000
TTM_SCR_SLD	3000
TTM_SCR_ALL	111800
TTM_SCR_S	107700
TTM_SCR_SS	111000
TTM_RAT_ACV	10072

