VERSION	0.00.00	1.03.00
FES_MODE	0
BPM_DEF	162.000	162.000	162.000	162.000
MET_DEF	4	4
RESOLUTION	384
CLK_DEF	384
COMPATIBLE_CODE	MA2

BPM	0	0	162.000
MET	0	0	4	4

STR	1	0	1
SI_	1	0	1	96	96	5
STR	1	96	5
SI_	1	96	5	96	96	2
TAP	1	192	6
TAP	1	240	7
TAP	1	288	7
STR	2	0	6
SI_	2	0	6	96	96	2
STR	2	96	2
SI_	2	96	2	96	96	5
TAP	2	192	1
TAP	2	240	0
TAP	2	288	0
STR	3	0	1
SI_	3	0	1	96	96	5
STR	3	96	5
SI_	3	96	5	96	96	2
TAP	3	192	6
TAP	3	240	7
TAP	3	288	7
BST	4	0	0
SI_	4	0	0	96	48	4
BST	4	48	7
SI_	4	48	7	96	48	3
BRK	4	96	0
BRK	4	144	7
BRK	4	240	0
BRK	4	288	0
STR	5	0	2
SCL	5	0	2	96	96	7
STR	5	96	7
SCL	5	96	7	96	96	4
STR	5	192	4
SCL	5	192	4	96	96	1
TAP	5	288	7
STR	6	0	5
SCR	6	0	5	96	96	0
STR	6	96	0
SCR	6	96	0	96	96	3
STR	6	192	3
SCR	6	192	3	96	96	6
TAP	6	288	0
STR	7	0	3
SCL	7	0	3	96	96	7
STR	7	96	7
SCL	7	96	7	96	96	3
STR	7	192	3
SCL	7	192	3	96	96	7
BST	8	0	4
SI_	8	0	4	96	48	0
BST	8	48	3
SI_	8	48	3	96	48	7
BRK	8	96	4
BRK	8	144	3
STR	9	0	4
SCR	9	0	4	96	96	0
STR	9	96	0
SCR	9	96	0	96	96	4
STR	9	192	4
SLR	9	192	4	96	96	0
STR	9	288	0
SLR	9	288	0	96	96	4
STR	10	0	4
SUR	10	0	4	96	96	0
STR	10	96	0
SUR	10	96	0	96	96	4
STR	10	192	4
SI_	10	192	4	96	96	0
STR	11	0	1
SCR	11	0	1	96	96	4
STR	11	96	4
SCR	11	96	4	96	96	7
STR	11	192	7
SI_	11	192	7	96	96	4
STR	11	288	4
SUR	11	288	4	96	192	3
STR	12	288	5
SCL	12	288	5	96	96	2
TAP	12	336	5
STR	13	0	2
SUL	13	0	2	96	96	5
STR	13	240	2
SCR	13	240	2	96	96	5
TAP	13	288	6
STR	13	336	5
SUR	13	336	5	96	144	2
TAP	14	0	6
TAP	14	288	3
TAP	14	336	4
TAP	15	0	3
STR	15	96	3
SXL	15	96	3	96	192	4
TAP	15	192	7
STR	15	288	4
SCL	15	288	4	96	384	4
TAP	16	0	7
STR	18	0	2
SI_	18	0	2	96	48	0
STR	18	48	0
SLL	18	48	0	96	144	2
TAP	18	144	4
STR	19	0	6
SI_	19	0	6	96	48	4
STR	19	48	4
SLL	19	48	4	96	144	6
TAP	19	144	0
TAP	19	192	0
STR	20	0	4
SCL	20	0	4	96	96	1
STR	20	96	1
SCL	20	96	1	96	96	6
STR	20	192	6
SCL	20	192	6	96	96	3
STR	20	288	3
SF_	20	288	3	96	192	7
STR	22	0	0
SXL	22	0	0	96	48	2
STR	22	96	0
SXR	22	96	0	96	48	6
STR	22	192	0
SCR	22	192	0	96	48	3
STR	22	288	0
SCL	22	288	0	96	48	5
STR	23	0	0
SI_	23	0	0	96	48	4
STR	23	96	0
SF_	23	96	0	96	48	4
STR	23	288	1
SCL	23	288	1	96	96	6
STR	24	0	6
SUR	24	0	6	96	96	2
STR	24	96	2
SLL	24	96	2	96	96	5
STR	24	192	5
SV_	24	192	5	96	96	3
STR	24	288	3
SCL	24	288	3	96	384	4
TAP	26	288	4
STR	27	0	3
SUL	27	0	3	96	144	0
STR	27	144	0
SI_	27	144	0	96	48	5
TAP	27	192	0
STR	27	336	4
SCR	27	336	4	96	192	3
TAP	28	0	4
STR	28	144	3
SI_	28	144	3	96	48	6
STR	28	192	3
SI_	28	192	3	96	48	0
STR	29	0	5
SCR	29	0	5	96	96	0
TAP	29	48	5
STR	29	96	0
SCR	29	96	0	96	96	3
TAP	29	144	0
STR	29	192	3
SCR	29	192	3	96	96	6
STR	29	288	6
SCR	29	288	6	96	96	1
STR	30	0	1
SUL	30	0	1	96	96	5
SUR	30	0	1	96	96	5
STR	30	336	7
SUL	30	336	7	96	48	3
STR	31	0	3
SUL	31	0	3	96	48	7
STR	31	144	4
SUL	31	144	4	96	48	0
STR	31	192	0
SUL	31	192	0	96	48	4
STR	31	336	7
SI_	31	336	7	96	48	3
STR	32	0	3
SF_	32	0	3	96	48	7
STR	32	288	0
SV_	32	288	0	96	96	3
STR	32	288	6
SV_	32	288	6	96	96	3
TAP	32	336	0
TAP	32	336	6
TAP	33	0	0
TAP	33	0	6
STR	33	192	6
SI_	33	192	6	96	96	1
STR	33	288	1
SI_	33	288	1	96	384	3
STR	34	0	0
SI_	34	0	0	96	288	4
STR	38	0	6
SI_	38	0	6	96	48	0
STR	38	96	5
SI_	38	96	5	96	48	1
STR	38	192	4
SI_	38	192	4	96	48	2
TAP	38	288	0
STR	39	0	0
SI_	39	0	0	96	48	6
STR	39	96	5
SI_	39	96	5	96	48	1
STR	39	192	7
SI_	39	192	7	96	48	3
TAP	39	240	7
TAP	39	288	7
STR	40	0	1
SCL	40	0	1	96	96	6
STR	40	96	6
SI_	40	96	6	96	96	2
STR	40	192	2
SCR	40	192	2	96	96	5
TAP	40	288	5
STR	41	0	0
SI_	41	0	0	96	48	3
TAP	41	96	0
STR	41	192	0
SI_	41	192	0	96	48	3
STR	41	192	7
SI_	41	192	7	96	48	4
TAP	41	288	0
TAP	41	288	7
STR	42	0	5
SI_	42	0	5	96	48	1
TAP	42	96	5
STR	42	192	7
SLL	42	192	7	96	48	3
SLR	42	192	7	96	48	3
TAP	42	240	7
STR	43	0	0
SI_	43	0	0	96	48	3
TAP	43	96	0
STR	43	192	7
SCL	43	192	7	96	48	3
SCR	43	192	7	96	48	3
TAP	43	288	7
STR	44	0	6
SI_	44	0	6	96	48	4
STR	44	96	7
SI_	44	96	7	96	48	3
STR	44	192	0
SI_	44	192	0	96	48	2
STR	46	0	5
SLR	46	0	5	96	48	4
STR	46	192	3
SLL	46	192	3	96	48	4
STR	47	0	1
SCL	47	0	1	96	48	6
STR	47	48	6
SI_	47	48	6	96	48	2
STR	47	96	2
SCR	47	96	2	96	48	5
TAP	48	0	5
STR	48	48	5
SI_	48	48	5	96	48	7
STR	48	96	7
SV_	48	96	7	96	96	0
TAP	48	144	7
STR	48	192	0
SI_	48	192	0	96	48	2
TAP	48	240	0
TAP	48	288	2
STR	49	96	4
SCL	49	96	4	96	48	7
STR	49	96	7
SI_	49	96	7	96	48	4
TAP	49	192	4
TAP	49	192	7
STR	50	0	0
SCL	50	0	0	96	96	3
STR	50	96	3
SUL	50	96	3	96	96	6
TAP	50	192	0
TAP	50	288	0
STR	51	96	6
SI_	51	96	6	96	48	1
STR	51	144	1
SCL	51	144	1	96	96	3
BRK	52	0	0
STR	52	0	7
SF_	52	0	7	96	96	3
TAP	52	96	7
STR	53	0	0
SCL	53	0	0	96	96	3
STR	53	96	3
SUL	53	96	3	96	96	6
TAP	53	192	6
STR	54	0	3
SI_	54	0	3	96	48	1
STR	54	0	5
SI_	54	0	5	96	48	7
STR	54	192	3
SV_	54	192	3	96	48	0
STR	54	192	5
SV_	54	192	5	96	48	0
STR	55	96	0
SI_	55	96	0	96	48	4
STR	55	96	7
SI_	55	96	7	96	48	1
TAP	55	192	0
TAP	55	192	7
STR	56	0	0
SCL	56	0	0	96	96	3
TAP	56	192	7
STR	57	0	3
SXL	57	0	3	96	96	3
STR	57	96	3
SI_	57	96	3	96	48	0
TAP	58	0	4
TAP	58	48	3
STR	58	96	5
SLR	58	96	5	96	96	4
STR	58	144	3
SLL	58	144	3	96	96	4
TAP	58	192	5
TAP	58	240	3
STR	59	0	0
SI_	59	0	0	96	48	3
STR	59	0	7
SI_	59	0	7	96	48	4
TAP	59	48	0
TAP	59	48	7
TAP	59	96	0
TAP	59	96	7
STR	59	192	0
SI_	59	192	0	96	48	3
STR	59	192	7
SI_	59	192	7	96	48	4
TAP	59	240	0
TAP	59	240	7
TAP	59	288	0
TAP	59	288	7
TAP	60	0	7
STR	60	48	7
SCR	60	48	7	96	48	1
STR	60	96	1
SV_	60	96	1	96	96	2
STR	60	192	2
SCR	60	192	2	96	48	4
STR	61	0	5
SI_	61	0	5	96	48	1
STR	61	0	6
SI_	61	0	6	96	48	0
STR	61	192	0
SI_	61	192	0	96	48	4
STR	61	192	7
SI_	61	192	7	96	48	3
TAP	61	288	0
TAP	61	288	7
TAP	62	0	0
TAP	62	48	0
STR	62	96	0
SSL	62	96	0	96	96	4
TAP	62	192	0
STR	63	0	1
SI_	63	0	1	96	48	4
STR	63	0	7
SI_	63	0	7	96	48	4
STR	63	192	3
SLL	63	192	3	96	48	4
STR	63	192	5
SLR	63	192	5	96	48	4
BST	64	0	7
SCR	64	0	7	96	96	4
BST	64	24	7
SI_	64	24	7	96	72	4
BRK	64	48	7
STR	65	0	1
SCL	65	0	1	96	96	4
STR	65	96	4
SCL	65	96	4	96	96	7
STR	65	192	7
SCL	65	192	7	96	96	3
STR	66	0	7
SUL	66	0	7	96	144	4
STR	66	144	4
SI_	66	144	4	96	48	1
TAP	66	192	4
STR	66	336	0
SCR	66	336	0	96	192	7
TAP	67	0	0
STR	67	144	7
SI_	67	144	7	96	48	2
STR	67	192	7
SI_	67	192	7	96	48	4
STR	68	0	6
SCL	68	0	6	96	96	3
TAP	68	48	6
STR	68	96	3
SCL	68	96	3	96	96	0
TAP	68	144	3
STR	68	192	0
SCL	68	192	0	96	96	5
STR	68	288	5
SCL	68	288	5	96	96	2
STR	69	0	2
SUL	69	0	2	96	96	6
SUR	69	0	2	96	96	6
STR	69	336	7
SUL	69	336	7	96	48	3
STR	70	0	3
SUL	70	0	3	96	48	7
STR	70	144	4
SUL	70	144	4	96	48	0
STR	70	192	0
SUL	70	192	0	96	48	4
STR	70	336	7
SI_	70	336	7	96	48	3
STR	71	0	3
SF_	71	0	3	96	48	7
STR	71	288	0
SV_	71	288	0	96	96	3
STR	71	288	6
SV_	71	288	6	96	96	3
TAP	71	336	0
TAP	71	336	6
TAP	72	0	0
TAP	72	0	6
STR	72	192	6
SI_	72	192	6	96	96	1
STR	72	288	1
SI_	72	288	1	96	384	3
STR	73	0	0
SI_	73	0	0	96	288	4
STR	75	0	0
SI_	75	0	0	96	48	5
STR	75	0	1
SI_	75	0	1	96	48	4
TAP	75	96	0
TAP	75	96	1
STR	75	192	6
SI_	75	192	6	96	48	3
STR	75	192	7
SI_	75	192	7	96	48	2
TAP	75	288	6
TAP	75	288	7
STR	76	0	0
SCL	76	0	0	96	48	5
STR	76	0	1
SCR	76	0	1	96	48	4
TAP	76	96	0
TAP	76	96	1
STR	76	192	6
SCL	76	192	6	96	48	3
STR	76	192	7
SCR	76	192	7	96	48	2
TAP	76	288	6
TAP	76	288	7
STR	77	0	0
SI_	77	0	0	96	48	6
STR	77	0	1
SI_	77	0	1	96	48	3
STR	77	96	0
SI_	77	96	0	96	48	4
STR	77	96	1
SI_	77	96	1	96	48	5
STR	77	192	0
SCR	77	192	0	96	48	4
STR	77	192	1
SCL	77	192	1	96	48	5
TAP	77	288	0
TAP	77	288	1
STR	78	0	6
SI_	78	0	6	96	48	4
STR	78	0	7
SI_	78	0	7	96	48	1
STR	78	96	6
SI_	78	96	6	96	48	2
STR	78	96	7
SI_	78	96	7	96	48	3
STR	78	192	6
SCR	78	192	6	96	48	2
STR	78	192	7
SCL	78	192	7	96	48	3
TAP	78	288	6
TAP	78	288	7
STR	79	0	7
SCL	79	0	7	96	48	3
SUL	79	0	7	96	48	3
STR	79	96	7
SCR	79	96	7	96	48	3
SUR	79	96	7	96	48	3
STR	79	192	7
SCL	79	192	7	96	48	3
SUL	79	192	7	96	48	3
TAP	79	288	7
BRK	80	0	1
BRK	80	0	6
BST	80	48	1
SI_	80	48	1	96	24	6
BST	80	48	6
SI_	80	48	6	96	24	1
BRK	80	96	1
BRK	80	96	6
BRK	80	144	1
BRK	80	144	6

T_REC_TAP	94
T_REC_BRK	14
T_REC_XTP	0
T_REC_HLD	0
T_REC_XHO	0
T_REC_STR	182
T_REC_BST	8
T_REC_XST	0
T_REC_TTP	0
T_REC_THO	0
T_REC_SLD	197
T_REC_ALL	495
T_NUM_TAP	276
T_NUM_BRK	22
T_NUM_HLD	0
T_NUM_SLD	197
T_NUM_ALL	495
T_JUDGE_TAP	298
T_JUDGE_HLD	0
T_JUDGE_SLD	197
T_JUDGE_ALL	495
TTM_EACHPAIRS	46
TTM_SCR_TAP	138000
TTM_SCR_BRK	57200
TTM_SCR_HLD	0
TTM_SCR_SLD	295500
TTM_SCR_ALL	490700
TTM_SCR_S	473850
TTM_SCR_SS	488500
TTM_RAT_ACV	10045

