VERSION	0.00.00	1.03.00
FES_MODE	0
BPM_DEF	162.000	162.000	162.000	162.000
MET_DEF	4	4
RESOLUTION	384
CLK_DEF	384
COMPATIBLE_CODE	MA2

BPM	0	0	162.000
MET	0	0	4	4

TAP	1	0	3
TAP	1	48	4
TAP	1	96	2
TAP	1	144	5
STR	1	192	1
SI_	1	192	1	96	48	5
TAP	1	240	6
TAP	1	288	6
TAP	2	0	4
TAP	2	48	3
TAP	2	96	5
TAP	2	144	2
STR	2	192	6
SI_	2	192	6	96	48	2
TAP	2	240	1
TAP	2	288	1
TAP	3	0	2
TAP	3	48	3
TAP	3	96	1
TAP	3	144	4
STR	3	192	0
SI_	3	192	0	96	48	4
TAP	3	240	5
TAP	3	288	5
TAP	4	0	6
TAP	4	0	7
TAP	4	48	0
TAP	4	48	5
TAP	4	96	1
TAP	4	96	4
TAP	4	144	2
TAP	4	144	3
TAP	4	240	6
TAP	4	240	7
BRK	4	288	0
BRK	4	288	5
TAP	5	0	5
TAP	5	48	4
TAP	5	96	6
TAP	5	144	3
STR	5	192	7
SI_	5	192	7	96	48	3
TAP	5	240	2
TAP	5	288	2
TAP	6	0	1
TAP	6	48	2
TAP	6	96	3
TAP	6	144	4
STR	6	192	5
SCR	6	192	5	96	48	0
TAP	6	240	1
TAP	6	288	1
TAP	7	0	6
TAP	7	48	5
TAP	7	96	4
TAP	7	144	3
STR	7	192	2
SCL	7	192	2	96	48	7
TAP	7	240	6
TAP	7	288	6
TAP	8	0	4
TAP	8	0	5
TAP	8	48	2
TAP	8	48	3
TAP	8	96	0
TAP	8	96	1
BRK	8	144	2
BRK	8	144	7
STR	9	0	1
SCR	9	0	1	96	48	4
STR	9	96	6
SCL	9	96	6	96	48	3
STR	9	192	2
SUL	9	192	2	96	48	5
TAP	9	288	7
TAP	10	0	6
TAP	10	48	3
TAP	10	48	4
TAP	10	144	1
STR	10	192	3
SI_	10	192	3	96	48	0
STR	10	192	4
SI_	10	192	4	96	48	7
STR	11	0	1
SUR	11	0	1	96	48	5
TAP	11	48	1
STR	11	96	6
SUL	11	96	6	96	48	2
TAP	11	144	6
TAP	11	192	1
STR	11	288	3
SCL	11	288	3	96	192	4
STR	11	288	4
SCR	11	288	4	96	192	3
TAP	12	288	2
TAP	12	336	1
STR	13	0	0
SCR	13	0	0	96	48	3
TAP	13	96	5
TAP	13	192	4
TAP	13	192	6
TAP	13	240	7
TAP	13	288	6
TAP	13	336	5
STR	14	0	4
SCR	14	0	4	96	48	7
TAP	14	96	1
TAP	14	192	0
TAP	14	192	2
TAP	14	288	3
TAP	14	336	2
STR	15	0	1
SI_	15	0	1	96	48	5
BRK	15	96	7
STR	15	192	6
SI_	15	192	6	96	48	2
BRK	15	288	0
TAP	16	0	1
TAP	16	48	3
TAP	16	96	4
TAP	16	144	6
TAP	16	192	2
TAP	16	240	0
TAP	16	288	7
TAP	16	336	5
TAP	17	0	3
TAP	17	48	7
TAP	17	96	1
TAP	17	144	5
STR	17	192	0
SI_	17	192	0	96	48	3
STR	17	192	4
SI_	17	192	4	96	48	7
TAP	18	0	6
TAP	18	48	5
TAP	18	96	3
TAP	18	96	4
TAP	18	144	2
TAP	18	168	3
TAP	18	192	2
TAP	18	240	1
TAP	18	288	0
TAP	18	288	2
TAP	19	0	1
TAP	19	48	2
TAP	19	96	3
TAP	19	96	4
TAP	19	144	5
TAP	19	168	4
TAP	19	192	5
TAP	19	240	6
TAP	19	288	5
TAP	19	288	7
TAP	20	0	6
TAP	20	48	5
TAP	20	96	3
TAP	20	96	4
TAP	20	144	2
TAP	20	168	3
TAP	20	192	2
TAP	20	240	1
TAP	20	288	0
TAP	20	288	2
STR	21	0	3
SI_	21	0	3	96	48	0
STR	21	96	4
SI_	21	96	4	96	48	7
STR	21	192	1
SI_	21	192	1	96	48	4
STR	21	288	6
SUL	21	288	6	96	192	3
TAP	22	0	1
TAP	22	144	2
STR	22	192	2
SI_	22	192	2	96	48	7
TAP	22	288	6
TAP	23	0	4
TAP	23	0	5
TAP	23	48	3
TAP	23	48	6
TAP	23	144	2
TAP	23	144	3
TAP	23	192	1
TAP	23	192	4
TAP	23	288	1
TAP	23	336	2
STR	24	0	3
SCR	24	0	3	96	96	6
STR	24	96	6
SCR	24	96	6	96	96	1
STR	24	192	1
SCR	24	192	1	96	96	4
STR	24	288	4
SI_	24	288	4	96	48	0
TAP	25	0	7
TAP	25	96	1
TAP	25	96	6
TAP	25	192	2
TAP	25	240	3
TAP	25	288	1
TAP	25	288	4
TAP	26	0	5
TAP	26	48	4
TAP	26	96	3
TAP	26	96	6
TAP	26	192	0
TAP	26	192	7
STR	26	288	3
SI_	26	288	3	96	48	0
STR	26	288	4
SI_	26	288	4	96	48	7
STR	27	96	1
SCR	27	96	1	96	48	5
TAP	27	144	0
TAP	27	192	7
STR	27	288	6
SCL	27	288	6	96	48	2
TAP	27	336	7
TAP	28	0	0
TAP	28	96	1
TAP	28	144	6
STR	28	192	0
SI_	28	192	0	96	48	4
STR	28	192	7
SI_	28	192	7	96	48	3
TAP	29	0	2
TAP	29	48	5
TAP	29	96	1
TAP	29	144	6
STR	29	192	0
SSL	29	192	0	96	96	4
STR	29	288	4
SCR	29	288	4	96	192	3
TAP	30	192	4
TAP	30	288	0
TAP	30	288	7
STR	30	336	1
SI_	30	336	1	96	48	4
STR	31	0	6
SI_	31	0	6	96	48	3
BRK	31	48	1
BRK	31	96	6
STR	31	144	0
SI_	31	144	0	96	48	4
STR	31	192	7
SI_	31	192	7	96	48	3
BRK	31	240	0
BRK	31	288	7
STR	31	336	2
SCL	31	336	2	96	144	5
STR	32	0	2
SUL	32	0	2	96	96	5
BRK	32	96	2
TAP	32	288	4
TAP	32	336	3
STR	33	0	2
SI_	33	0	2	96	48	0
STR	33	96	7
SI_	33	96	7	96	48	3
STR	33	192	0
SI_	33	192	0	96	48	4
STR	33	288	5
SI_	33	288	5	96	48	7
STR	34	0	0
SI_	34	0	0	96	48	4
HLD	34	96	5	192
TAP	34	240	4
TAP	34	288	4
TAP	35	0	0
STR	35	0	7
SI_	35	0	7	96	48	3
HLD	35	96	2	192
TAP	35	240	3
TAP	35	288	3
TAP	36	0	0
STR	36	0	1
SI_	36	0	1	96	48	5
HLD	36	96	6	192
TAP	36	240	5
TAP	36	288	5
STR	37	0	6
SI_	37	0	6	96	48	2
TAP	37	0	7
HLD	37	96	1	192
TAP	37	240	2
TAP	37	288	2
TAP	38	0	3
TAP	38	48	4
TAP	38	96	5
TAP	38	144	6
STR	38	192	7
SI_	38	192	7	96	48	3
STR	38	240	3
SI_	38	240	3	96	48	7
TAP	39	0	4
TAP	39	48	3
TAP	39	96	2
TAP	39	144	1
STR	39	192	0
SI_	39	192	0	96	48	4
TAP	39	240	1
TAP	39	240	7
TAP	40	0	6
TAP	40	48	4
TAP	40	96	3
TAP	40	144	1
TAP	40	192	7
TAP	40	240	0
STR	40	288	1
SI_	40	288	1	96	48	3
TAP	40	288	6
STR	41	0	0
SI_	41	0	0	96	48	4
TAP	41	0	1
TAP	41	96	0
STR	41	96	7
SI_	41	96	7	96	48	3
STR	41	192	6
SI_	41	192	6	96	48	4
TAP	41	192	7
BRK	41	288	0
TAP	41	288	6
TAP	42	0	1
TAP	42	48	3
TAP	42	96	4
TAP	42	144	6
STR	42	192	7
SI_	42	192	7	96	48	3
TAP	42	240	0
TAP	42	240	6
TAP	43	0	2
TAP	43	48	0
TAP	43	96	7
TAP	43	144	5
TAP	43	192	3
TAP	43	240	4
TAP	43	288	2
STR	43	288	5
SCR	43	288	5	96	144	2
STR	44	192	3
SI_	44	192	3	96	48	0
STR	44	192	4
SI_	44	192	4	96	48	7
TAP	44	288	3
TAP	44	288	4
TAP	45	0	1
TAP	45	48	3
TAP	45	96	5
TAP	45	144	7
TAP	45	192	6
TAP	45	240	4
TAP	45	288	2
TAP	45	336	0
STR	46	0	1
SI_	46	0	1	96	48	3
STR	46	0	7
SI_	46	0	7	96	48	5
STR	46	96	1
SI_	46	96	1	96	48	4
STR	46	96	7
SI_	46	96	7	96	48	4
TAP	46	192	1
TAP	46	192	7
TAP	46	288	0
TAP	46	288	4
TAP	47	0	3
TAP	47	0	7
TAP	47	48	2
TAP	47	48	6
TAP	47	96	1
TAP	47	96	5
STR	47	144	0
SI_	47	144	0	96	48	4
TAP	47	144	4
TAP	47	240	7
TAP	47	288	7
STR	48	0	0
SCL	48	0	0	96	96	5
STR	48	96	5
SCL	48	96	5	96	96	2
STR	48	192	2
SUL	48	192	2	96	48	5
STR	49	0	0
SI_	49	0	0	96	48	2
STR	49	0	6
SI_	49	0	6	96	48	4
STR	49	96	0
SI_	49	96	0	96	48	3
STR	49	96	6
SI_	49	96	6	96	48	3
BRK	49	192	0
BRK	49	192	6
TAP	50	0	2
TAP	50	48	5
TAP	50	96	1
TAP	50	144	6
STR	50	192	0
SI_	50	192	0	96	48	4
TAP	50	240	1
TAP	50	240	7
TAP	51	0	3
TAP	51	0	4
STR	51	96	0
SI_	51	96	0	96	48	4
STR	51	96	7
SI_	51	96	7	96	48	3
TAP	51	144	1
TAP	51	144	6
TAP	51	288	1
TAP	51	288	6
TAP	52	0	1
TAP	52	48	0
TAP	52	96	7
STR	52	144	6
SI_	52	144	6	96	48	2
TAP	52	240	0
STR	52	288	1
SCR	52	288	1	96	48	3
TAP	53	0	1
STR	53	0	7
SCL	53	0	7	96	48	5
STR	53	96	0
SSL	53	96	0	96	96	4
TAP	53	96	7
TAP	53	192	0
TAP	54	0	0
TAP	54	0	1
TAP	54	48	2
TAP	54	96	6
TAP	54	96	7
TAP	54	144	5
STR	54	192	3
SI_	54	192	3	96	48	7
STR	54	192	4
SI_	54	192	4	96	48	0
TAP	54	240	3
TAP	54	240	4
TAP	55	0	1
TAP	55	0	6
STR	55	96	0
SCR	55	96	0	96	48	3
STR	55	96	7
SCL	55	96	7	96	48	4
BRK	55	192	0
BRK	55	192	7
HLD	56	0	2	144
HLD	56	0	5	144
STR	56	192	1
SI_	56	192	1	96	48	5
STR	56	240	6
SI_	56	240	6	96	48	2
TAP	56	288	1
TAP	56	336	6
TAP	57	0	4
TAP	57	48	3
STR	57	96	2
SV_	57	96	2	96	48	0
STR	57	96	6
SV_	57	96	6	96	48	4
TAP	57	192	2
TAP	57	192	6
TAP	57	288	3
TAP	57	288	7
TAP	58	0	1
TAP	58	48	0
TAP	58	48	1
TAP	58	96	6
TAP	58	144	6
TAP	58	144	7
TAP	58	192	0
TAP	58	240	0
TAP	58	240	7
TAP	58	288	1
TAP	58	288	6
TAP	59	0	2
TAP	59	24	3
TAP	59	48	2
TAP	59	72	3
TAP	59	96	1
TAP	59	144	5
TAP	59	168	4
TAP	59	192	5
TAP	59	216	4
TAP	59	240	6
TAP	59	288	0
TAP	59	288	7
TAP	60	0	2
TAP	60	48	1
TAP	60	48	3
TAP	60	96	5
TAP	60	144	4
TAP	60	144	6
TAP	60	192	7
TAP	60	240	0
TAP	60	240	7
STR	61	0	3
SCL	61	0	3	96	48	0
STR	61	0	4
SCR	61	0	4	96	48	7
TAP	61	192	1
TAP	61	240	0
TAP	61	240	2
TAP	61	288	6
TAP	61	336	5
TAP	61	336	7
TAP	62	0	0
TAP	62	0	1
TAP	62	48	2
TAP	62	48	3
TAP	62	96	4
TAP	62	96	5
TAP	62	144	6
TAP	62	144	7
TAP	62	192	0
TAP	62	216	7
TAP	62	240	0
TAP	62	264	7
BRK	62	288	0
TAP	63	0	2
TAP	63	0	3
TAP	63	48	0
TAP	63	48	1
TAP	63	96	6
TAP	63	96	7
TAP	63	144	4
TAP	63	144	5
TAP	63	192	3
TAP	63	216	4
TAP	63	240	3
TAP	63	264	4
TAP	63	288	3
TAP	63	312	4
TAP	63	336	3
TAP	64	0	2
TAP	64	48	0
TAP	64	48	6
TAP	64	96	5
TAP	64	144	1
STR	64	144	7
SI_	64	144	7	96	48	3
TAP	64	240	0
TAP	64	288	0
BRK	65	0	4
BRK	65	0	5
BRK	65	48	3
BRK	65	48	6
BRK	65	96	2
BRK	65	96	7
BRK	65	144	0
STR	65	144	1
SI_	65	144	1	96	48	5
TAP	65	240	7
STR	65	288	7
SSR	65	288	7	96	96	3
STR	66	96	2
SCL	66	96	2	96	48	6
TAP	66	144	3
TAP	66	192	4
STR	66	288	5
SCR	66	288	5	96	48	1
TAP	66	336	4
TAP	67	0	3
TAP	67	96	2
TAP	67	144	5
STR	67	192	3
SCL	67	192	3	96	48	0
STR	67	192	4
SCR	67	192	4	96	48	7
TAP	68	0	1
TAP	68	0	6
TAP	68	48	1
TAP	68	48	6
TAP	68	96	2
TAP	68	96	5
TAP	68	144	2
TAP	68	144	5
STR	68	192	3
SUR	68	192	3	96	96	4
TAP	68	192	4
TAP	68	288	3
STR	68	288	4
SCR	68	288	4	96	192	3
TAP	69	192	4
TAP	69	288	0
TAP	69	288	7
STR	69	336	6
SI_	69	336	6	96	48	3
STR	70	0	1
SI_	70	0	1	96	48	4
BRK	70	48	6
BRK	70	96	1
STR	70	144	7
SI_	70	144	7	96	48	3
STR	70	192	0
SI_	70	192	0	96	48	4
BRK	70	240	7
BRK	70	288	0
STR	70	336	5
SCR	70	336	5	96	144	2
STR	71	0	5
SUR	71	0	5	96	96	2
BRK	71	96	5
TAP	71	288	3
TAP	71	336	4
TAP	72	0	2
TAP	72	0	3
HLD	72	48	1	96
HLD	72	48	4	96
TAP	72	192	4
TAP	72	192	5
HLD	72	240	3	96
HLD	72	240	6	96
STR	73	0	2
SI_	73	0	2	96	48	0
STR	73	0	7
SI_	73	0	7	96	48	3
TAP	73	96	2
TAP	73	96	7
TAP	73	192	1
TAP	73	240	2
TAP	73	288	3
TAP	73	336	4
STR	74	0	0
SI_	74	0	0	96	48	4
STR	74	0	5
SI_	74	0	5	96	48	7
TAP	74	96	0
TAP	74	96	5
TAP	74	192	6
TAP	74	240	5
TAP	74	288	4
TAP	74	336	3
STR	75	0	2
SCL	75	0	2	96	48	7
STR	75	96	6
SCL	75	96	6	96	48	3
STR	75	192	1
SCR	75	192	1	96	48	4
STR	75	288	5
SCR	75	288	5	96	48	0
STR	76	0	1
SI_	76	0	1	96	48	5
TAP	76	96	6
TAP	76	192	0
TAP	76	192	7
TAP	76	240	1
TAP	76	240	6
TAP	76	288	2
TAP	76	288	5
TAP	76	336	3
TAP	76	336	4
TAP	77	0	0
TAP	77	0	1
TAP	77	48	2
TAP	77	96	3
TAP	77	96	4
TAP	77	144	5
TAP	77	192	6
TAP	77	192	7
TAP	77	240	5
TAP	77	288	3
TAP	77	288	4
TAP	77	336	2
TAP	78	0	4
TAP	78	0	5
TAP	78	48	6
TAP	78	96	0
TAP	78	96	7
TAP	78	144	1
TAP	78	192	2
TAP	78	192	3
TAP	78	240	1
TAP	78	288	0
TAP	78	288	7
TAP	78	336	6
TAP	79	0	4
TAP	79	0	5
TAP	79	48	1
TAP	79	96	2
TAP	79	96	3
TAP	79	144	6
TAP	79	192	0
TAP	79	192	1
TAP	79	240	5
TAP	79	288	6
TAP	79	288	7
TAP	79	336	2
TAP	80	0	3
TAP	80	0	4
TAP	80	48	2
TAP	80	48	5
TAP	80	96	1
TAP	80	96	6
BRK	80	144	0
BRK	80	144	7

T_REC_TAP	422
T_REC_BRK	31
T_REC_XTP	0
T_REC_HLD	10
T_REC_XHO	0
T_REC_STR	116
T_REC_BST	0
T_REC_XST	0
T_REC_TTP	0
T_REC_THO	0
T_REC_SLD	116
T_REC_ALL	695
T_NUM_TAP	538
T_NUM_BRK	31
T_NUM_HLD	10
T_NUM_SLD	116
T_NUM_ALL	695
T_JUDGE_TAP	569
T_JUDGE_HLD	30
T_JUDGE_SLD	116
T_JUDGE_ALL	715
TTM_EACHPAIRS	136
TTM_SCR_TAP	269000
TTM_SCR_BRK	80600
TTM_SCR_HLD	10000
TTM_SCR_SLD	174000
TTM_SCR_ALL	533600
TTM_SCR_S	514600
TTM_SCR_SS	530500
TTM_RAT_ACV	10058

