VERSION	0.00.00	1.03.00
FES_MODE	0
BPM_DEF	162.000	162.000	162.000	162.000
MET_DEF	4	4
RESOLUTION	384
CLK_DEF	384
COMPATIBLE_CODE	MA2

BPM	0	0	162.000
MET	0	0	4	4

TAP	1	96	3
TAP	1	96	4
TAP	1	240	2
TAP	1	288	3
TAP	2	96	3
TAP	2	96	4
TAP	2	240	5
TAP	2	288	4
TAP	3	96	3
TAP	3	96	4
TAP	3	240	2
TAP	3	288	3
TAP	4	0	1
TAP	4	48	6
TAP	4	96	1
TAP	4	144	6
TAP	4	288	0
TAP	4	288	7
HLD	5	0	1	96
TAP	5	96	3
TAP	5	192	5
TAP	5	240	4
TAP	5	288	5
HLD	6	0	6	96
TAP	6	96	4
TAP	6	192	2
TAP	6	240	3
TAP	6	288	2
HLD	7	0	5	96
TAP	7	96	0
HLD	7	192	2	96
TAP	7	288	7
TAP	8	0	1
TAP	8	48	0
TAP	8	96	7
TAP	8	144	6
BRK	8	240	0
BRK	8	288	0
HLD	9	0	6	192
TAP	9	192	4
TAP	9	288	3
HLD	10	0	1	192
TAP	10	192	3
TAP	10	288	4
TAP	11	0	0
TAP	11	0	7
TAP	11	96	2
TAP	11	96	5
TAP	11	192	1
TAP	11	192	6
TAP	11	288	3
TAP	11	288	4
STR	12	0	0
SCR	12	0	0	96	96	3
STR	12	0	7
SCL	12	0	7	96	96	4
HLD	13	0	1	192
STR	13	0	6
SCL	13	0	6	96	96	3
STR	14	0	2
SCL	14	0	2	96	96	7
HLD	14	0	5	192
HLD	15	0	6	96
HLD	15	96	4	96
HLD	15	192	3	96
HLD	15	288	1	96
STR	16	0	7
SCL	16	0	7	96	192	2
TAP	17	0	3
TAP	17	48	4
TAP	17	96	3
TAP	17	144	4
TAP	17	192	3
TAP	17	240	4
TAP	17	288	3
TAP	17	336	4
TAP	18	0	2
HLD	18	48	2	240
STR	18	144	6
SCL	18	144	6	96	48	4
TAP	19	0	6
HLD	19	48	6	240
STR	19	144	1
SCR	19	144	1	96	48	3
TAP	19	192	1
STR	20	0	5
SI_	20	0	5	96	48	0
TAP	20	96	3
STR	20	192	2
SI_	20	192	2	96	48	7
TAP	20	288	4
STR	21	0	5
SCR	21	0	5	96	144	2
HLD	22	0	1	288
TAP	22	96	2
TAP	22	192	3
TAP	22	288	4
HLD	23	0	6	288
TAP	23	96	5
TAP	23	192	4
TAP	23	288	3
HLD	24	0	2	96
TAP	24	96	3
HLD	24	192	6	96
TAP	24	288	5
STR	25	0	0
SCR	25	0	0	96	288	7
TAP	26	288	2
TAP	26	288	3
STR	27	0	2
SCL	27	0	2	96	96	7
STR	27	0	3
SCR	27	0	3	96	96	6
STR	28	0	4
SCL	28	0	4	96	96	1
STR	28	0	5
SCR	28	0	5	96	96	0
TAP	29	0	0
TAP	29	48	1
TAP	29	96	2
TAP	29	144	3
HLD	29	192	4	96
HLD	29	288	5	96
STR	30	0	6
SCR	30	0	6	96	96	1
TAP	30	336	0
TAP	31	0	0
BRK	31	48	7
BRK	31	96	7
TAP	31	144	1
TAP	31	192	1
BRK	31	240	6
BRK	31	288	6
TAP	31	336	2
STR	32	0	2
SI_	32	0	2	96	48	7
BRK	32	96	5
TAP	32	288	6
TAP	32	336	7
STR	33	0	6
SCL	33	0	6	96	48	3
HLD	33	192	0	96
HLD	33	288	1	96
STR	34	0	2
SUR	34	0	2	96	192	5
TAP	35	96	4
TAP	35	96	5
TAP	35	240	3
TAP	35	288	4
TAP	36	96	2
TAP	36	96	3
TAP	36	240	4
TAP	36	288	3
TAP	37	96	4
TAP	37	96	5
TAP	37	240	3
TAP	37	288	4
TAP	38	0	3
TAP	38	96	5
TAP	38	192	0
TAP	38	240	7
TAP	38	288	1
TAP	38	288	6
TAP	39	0	4
TAP	39	96	2
TAP	39	192	7
TAP	39	240	0
TAP	39	288	1
TAP	39	288	6
TAP	40	0	2
TAP	40	0	3
TAP	40	96	4
TAP	40	96	5
TAP	40	192	0
TAP	40	240	7
TAP	40	288	0
TAP	41	0	1
TAP	41	0	7
TAP	41	96	0
TAP	41	96	6
STR	41	192	0
SI_	41	192	0	96	48	3
STR	41	192	7
SI_	41	192	7	96	48	4
TAP	42	0	2
TAP	42	48	3
TAP	42	96	2
TAP	42	192	5
TAP	42	240	4
TAP	42	288	5
TAP	43	0	1
TAP	43	48	0
TAP	43	96	1
TAP	43	192	6
TAP	43	240	7
TAP	43	288	6
HLD	44	0	0	96
HLD	44	0	7	96
TAP	44	192	3
TAP	44	192	4
TAP	44	288	1
TAP	44	288	6
STR	45	0	0
SUL	45	0	0	96	192	7
TAP	46	0	4
TAP	46	96	3
TAP	46	192	7
TAP	46	240	0
TAP	46	288	7
STR	47	0	1
SI_	47	0	1	96	48	3
STR	47	0	7
SI_	47	0	7	96	48	5
STR	47	192	1
SI_	47	192	1	96	48	4
STR	47	192	7
SI_	47	192	7	96	48	4
TAP	48	0	1
TAP	48	48	0
TAP	48	96	1
TAP	48	192	2
TAP	48	240	3
TAP	48	288	2
TAP	49	96	4
TAP	49	96	5
TAP	49	192	6
TAP	49	192	7
STR	50	0	7
SCL	50	0	7	96	48	4
STR	50	192	3
SCL	50	192	3	96	48	0
TAP	51	0	6
TAP	51	96	1
TAP	51	96	5
TAP	51	192	3
TAP	51	192	7
BRK	52	0	0
HLD	52	0	7	96
STR	52	96	0
SI_	52	96	0	96	48	3
TAP	52	192	6
STR	53	0	1
SI_	53	0	1	96	48	4
STR	53	0	6
SI_	53	0	6	96	48	3
TAP	53	192	1
TAP	53	192	6
TAP	54	0	0
TAP	54	0	2
TAP	54	96	5
TAP	54	96	7
STR	54	192	0
SI_	54	192	0	96	48	4
STR	54	192	7
SI_	54	192	7	96	48	3
TAP	55	96	0
TAP	55	96	7
TAP	55	192	1
TAP	55	192	6
STR	56	0	0
SI_	56	0	0	96	48	5
STR	56	0	1
SI_	56	0	1	96	48	4
STR	56	192	6
SI_	56	192	6	96	48	3
STR	56	192	7
SI_	56	192	7	96	48	2
TAP	57	0	4
TAP	57	96	3
TAP	57	192	1
TAP	57	192	6
HLD	58	0	2	96
TAP	58	96	3
TAP	58	192	1
TAP	58	240	0
TAP	58	288	1
TAP	58	288	7
HLD	59	0	5	96
TAP	59	96	4
TAP	59	192	6
TAP	59	240	7
TAP	59	288	0
TAP	59	288	6
HLD	60	0	5	96
HLD	60	96	4	96
TAP	60	192	3
TAP	60	240	2
TAP	60	288	1
TAP	60	288	3
HLD	61	0	3	96
HLD	61	0	4	96
STR	61	192	1
SI_	61	192	1	96	48	5
STR	61	192	6
SI_	61	192	6	96	48	2
TAP	62	0	0
TAP	62	0	7
STR	62	96	0
SSL	62	96	0	96	96	4
TAP	62	96	7
TAP	63	0	0
TAP	63	0	6
STR	63	96	1
SI_	63	96	1	96	48	4
STR	63	96	7
SI_	63	96	7	96	48	4
STR	64	0	2
SCL	64	0	2	96	96	7
STR	64	96	7
SCL	64	96	7	96	96	4
BRK	65	0	0
BRK	65	0	1
BRK	65	96	6
BRK	65	96	7
BRK	65	192	4
BRK	65	192	5
BRK	65	288	2
BRK	65	288	3
STR	66	0	2
SCL	66	0	2	96	96	7
STR	66	0	3
SCR	66	0	3	96	96	6
STR	67	0	4
SCL	67	0	4	96	96	1
STR	67	0	5
SCR	67	0	5	96	96	0
TAP	68	0	0
TAP	68	48	1
TAP	68	96	2
TAP	68	144	3
HLD	68	192	4	96
HLD	68	288	5	96
STR	69	0	6
SCR	69	0	6	96	96	1
TAP	69	336	0
TAP	70	0	0
BRK	70	48	7
BRK	70	96	7
TAP	70	144	1
TAP	70	192	1
BRK	70	240	6
BRK	70	288	6
TAP	70	336	2
STR	71	0	2
SI_	71	0	2	96	48	7
BRK	71	96	5
TAP	71	288	6
TAP	71	336	7
STR	72	0	6
SCL	72	0	6	96	48	3
HLD	72	192	0	96
HLD	72	288	1	96
STR	73	0	2
SUR	73	0	2	96	288	5
TAP	74	240	6
TAP	74	288	7
TAP	74	336	0
HLD	75	0	1	96
TAP	75	96	4
HLD	75	192	6	96
TAP	75	288	3
STR	76	0	1
SUR	76	0	1	96	192	4
HLD	77	0	6	96
TAP	77	96	4
TAP	77	192	2
TAP	77	240	3
TAP	77	288	2
TAP	77	288	4
HLD	78	0	1	96
TAP	78	96	3
TAP	78	192	5
TAP	78	240	4
TAP	78	288	3
TAP	78	288	5
HLD	79	0	2	96
TAP	79	96	7
HLD	79	192	5	96
TAP	79	288	0
BRK	80	0	6
BRK	80	48	7
BRK	80	96	0
BRK	80	144	1

T_REC_TAP	211
T_REC_BRK	25
T_REC_XTP	0
T_REC_HLD	41
T_REC_XHO	0
T_REC_STR	53
T_REC_BST	0
T_REC_XST	0
T_REC_TTP	0
T_REC_THO	0
T_REC_SLD	53
T_REC_ALL	383
T_NUM_TAP	264
T_NUM_BRK	25
T_NUM_HLD	41
T_NUM_SLD	53
T_NUM_ALL	383
T_JUDGE_TAP	289
T_JUDGE_HLD	104
T_JUDGE_SLD	53
T_JUDGE_ALL	446
TTM_EACHPAIRS	61
TTM_SCR_TAP	132000
TTM_SCR_BRK	65000
TTM_SCR_HLD	41000
TTM_SCR_SLD	79500
TTM_SCR_ALL	317500
TTM_SCR_S	305550
TTM_SCR_SS	315000
TTM_RAT_ACV	10079

