VERSION	0.00.00	1.03.00
FES_MODE	0
BPM_DEF	162.000	162.000	162.000	162.000
MET_DEF	4	4
RESOLUTION	384
CLK_DEF	384
COMPATIBLE_CODE	MA2

BPM	0	0	162.000
MET	0	0	4	4

TAP	5	0	6
TAP	5	96	6
TAP	5	192	7
TAP	5	288	7
TAP	6	0	0
TAP	6	96	0
TAP	6	192	1
TAP	6	288	1
HLD	7	0	2	96
TAP	7	96	3
HLD	7	191	5	97
TAP	7	288	4
TAP	8	0	3
TAP	8	48	4
TAP	8	96	3
TAP	8	144	4
TAP	9	0	1
TAP	9	96	1
TAP	9	192	0
TAP	9	288	0
TAP	10	0	7
TAP	10	96	7
TAP	10	192	0
TAP	10	192	6
TAP	11	0	1
TAP	11	96	0
TAP	11	192	7
TAP	11	288	6
TAP	12	0	0
TAP	12	0	7
TAP	12	96	1
TAP	12	96	6
TAP	12	192	2
TAP	12	192	5
STR	13	0	1
SCL	13	0	1	96	144	6
STR	14	0	6
SI_	14	0	6	96	144	2
STR	15	0	2
SCR	15	0	2	96	144	5
TAP	16	0	5
TAP	16	96	4
TAP	16	192	3
TAP	16	288	2
TAP	17	0	3
TAP	17	96	4
TAP	17	192	2
TAP	17	192	5
TAP	18	0	2
TAP	18	96	3
TAP	18	192	1
TAP	18	192	4
TAP	19	0	5
TAP	19	96	4
TAP	19	192	3
TAP	19	192	6
TAP	20	0	0
TAP	20	96	1
TAP	20	192	2
STR	20	288	3
SCL	20	288	3	96	192	0
STR	20	288	4
SCR	20	288	4	96	192	7
TAP	22	0	1
TAP	22	96	2
TAP	22	192	3
TAP	22	288	4
TAP	22	288	5
TAP	23	0	6
TAP	23	96	5
TAP	23	192	4
TAP	23	288	3
HLD	24	0	2	96
TAP	24	96	3
HLD	24	192	5	96
STR	24	288	4
SUL	24	288	4	96	384	1
TAP	26	192	0
TAP	26	192	7
TAP	27	0	6
TAP	27	96	5
TAP	27	192	4
TAP	27	288	2
TAP	27	288	3
TAP	28	0	1
TAP	28	96	2
TAP	28	192	3
TAP	28	288	4
TAP	28	288	5
TAP	29	0	6
TAP	29	96	3
TAP	29	96	4
TAP	29	192	1
STR	29	288	3
SCL	29	288	3	96	192	0
STR	29	288	4
SCR	29	288	4	96	192	7
TAP	30	336	6
TAP	30	336	7
TAP	31	0	6
TAP	31	0	7
TAP	31	144	0
TAP	31	144	1
TAP	31	192	0
TAP	31	192	1
TAP	31	336	0
TAP	31	336	7
STR	32	0	0
SI_	32	0	0	96	96	3
STR	32	0	7
SI_	32	0	7	96	96	4
HLD	33	0	5	96
TAP	33	96	4
HLD	33	192	2	96
STR	33	288	3
SUR	33	288	3	96	384	6
TAP	36	0	2
HLD	36	96	2	192
TAP	36	288	3
TAP	37	0	5
HLD	37	96	5	192
TAP	37	288	4
TAP	38	0	2
TAP	38	96	1
TAP	38	192	0
TAP	38	240	0
TAP	38	288	0
TAP	39	0	5
TAP	39	96	6
TAP	39	192	7
TAP	39	240	7
TAP	39	288	7
TAP	40	0	1
TAP	40	96	2
TAP	40	192	3
TAP	40	240	4
TAP	40	288	3
TAP	41	0	5
TAP	41	96	6
TAP	41	192	7
TAP	41	288	0
TAP	41	288	1
TAP	42	0	2
TAP	42	96	1
TAP	42	192	0
TAP	42	240	0
TAP	42	288	0
TAP	43	0	5
TAP	43	96	6
TAP	43	192	7
TAP	43	240	7
TAP	43	288	7
HLD	44	0	0	192
TAP	44	192	7
TAP	44	288	1
TAP	44	288	6
TAP	45	0	2
TAP	45	96	3
TAP	45	192	4
TAP	45	288	5
TAP	46	0	6
TAP	46	96	5
TAP	46	192	4
TAP	46	240	3
TAP	46	288	4
STR	47	0	2
SI_	47	0	2	96	144	6
TAP	48	0	1
TAP	48	96	2
TAP	48	192	3
TAP	48	240	4
TAP	48	288	3
TAP	49	96	2
TAP	49	96	5
TAP	49	192	0
TAP	49	192	7
TAP	50	0	5
TAP	50	96	6
TAP	50	192	7
TAP	50	240	0
TAP	50	288	7
TAP	51	96	1
TAP	51	96	6
TAP	51	192	3
TAP	51	192	4
STR	52	0	5
SI_	52	0	5	96	144	1
TAP	53	0	0
TAP	53	0	1
TAP	53	96	6
TAP	53	96	7
TAP	53	192	0
TAP	53	192	7
TAP	54	0	2
TAP	54	96	1
TAP	54	192	0
TAP	54	240	7
TAP	54	288	0
TAP	55	96	2
TAP	55	96	5
TAP	55	192	0
TAP	55	192	7
HLD	56	0	7	192
TAP	56	192	0
TAP	56	288	1
TAP	56	288	6
TAP	57	0	4
TAP	57	0	5
TAP	57	96	2
TAP	57	96	3
TAP	57	192	3
TAP	57	192	4
TAP	58	0	1
TAP	58	96	4
TAP	58	192	3
TAP	58	288	6
TAP	59	0	2
TAP	59	48	3
TAP	59	96	2
TAP	59	192	5
TAP	59	240	4
TAP	59	288	5
TAP	60	0	3
TAP	60	0	4
TAP	60	96	2
TAP	60	96	5
TAP	60	192	1
TAP	60	192	6
TAP	61	0	2
TAP	61	0	3
TAP	61	96	4
TAP	61	96	5
TAP	61	192	3
TAP	61	240	4
TAP	61	288	3
TAP	61	336	4
TAP	62	0	3
TAP	62	96	2
TAP	62	192	1
TAP	62	240	0
TAP	62	288	1
TAP	63	0	4
TAP	63	96	5
TAP	63	192	6
TAP	63	240	7
TAP	63	288	6
STR	64	0	0
SI_	64	0	0	96	192	4
TAP	65	0	3
TAP	65	0	5
TAP	65	96	2
TAP	65	96	6
TAP	65	192	1
TAP	65	192	7
BRK	65	288	0
BRK	65	288	4
TAP	66	0	1
TAP	66	96	2
TAP	66	192	3
TAP	66	240	4
TAP	66	288	3
TAP	67	0	6
TAP	67	96	5
TAP	67	192	4
TAP	67	240	3
TAP	67	288	4
TAP	68	0	2
TAP	68	96	1
TAP	68	96	3
TAP	68	192	5
TAP	68	288	4
TAP	68	288	6
TAP	69	0	3
TAP	69	96	4
TAP	69	192	1
TAP	69	192	6
TAP	69	336	0
TAP	69	336	1
TAP	70	0	0
TAP	70	0	1
TAP	70	144	6
TAP	70	144	7
TAP	70	192	6
TAP	70	192	7
TAP	70	336	0
TAP	70	336	7
STR	71	0	0
SI_	71	0	0	96	96	3
STR	71	0	7
SI_	71	0	7	96	96	4
TAP	72	0	2
TAP	72	0	3
TAP	72	48	2
TAP	72	48	3
TAP	72	192	4
TAP	72	192	5
TAP	72	240	4
TAP	72	240	5
TAP	73	0	1
TAP	73	96	0
TAP	73	96	1
TAP	73	192	2
TAP	73	240	3
TAP	73	288	2
TAP	74	0	6
TAP	74	96	6
TAP	74	96	7
TAP	74	192	5
TAP	74	240	4
TAP	74	288	5
TAP	75	0	2
TAP	75	96	1
TAP	75	192	0
TAP	75	288	7
TAP	76	0	6
TAP	76	96	5
TAP	76	192	4
TAP	76	288	3
TAP	77	0	2
TAP	77	96	2
TAP	77	96	3
TAP	77	192	1
TAP	77	240	0
TAP	77	288	1
TAP	78	0	5
TAP	78	96	4
TAP	78	96	5
TAP	78	192	6
TAP	78	240	7
TAP	78	288	6
TAP	79	0	2
TAP	79	96	0
TAP	79	96	1
TAP	79	192	5
TAP	79	288	6
TAP	79	288	7
TAP	80	0	0
TAP	80	48	7
TAP	80	96	0
BRK	80	144	7

T_REC_TAP	295
T_REC_BRK	3
T_REC_XTP	0
T_REC_HLD	10
T_REC_XHO	0
T_REC_STR	16
T_REC_BST	0
T_REC_XST	0
T_REC_TTP	0
T_REC_THO	0
T_REC_SLD	16
T_REC_ALL	340
T_NUM_TAP	311
T_NUM_BRK	3
T_NUM_HLD	10
T_NUM_SLD	16
T_NUM_ALL	340
T_JUDGE_TAP	314
T_JUDGE_HLD	29
T_JUDGE_SLD	16
T_JUDGE_ALL	359
TTM_EACHPAIRS	63
TTM_SCR_TAP	155500
TTM_SCR_BRK	7800
TTM_SCR_HLD	10000
TTM_SCR_SLD	24000
TTM_SCR_ALL	197300
TTM_SCR_S	191100
TTM_SCR_SS	197000
TTM_RAT_ACV	10015

