VERSION	0.00.00	1.03.00
FES_MODE	0
BPM_DEF	162.000	162.000	162.000	162.000
MET_DEF	4	4
RESOLUTION	384
CLK_DEF	384
COMPATIBLE_CODE	MA2

BPM	0	0	162.000
MET	0	0	4	4

TAP	5	0	0
TAP	5	192	0
TAP	6	0	1
TAP	6	192	1
TAP	7	0	2
TAP	7	192	2
TAP	8	0	3
TAP	8	0	4
HLD	9	0	4	192
HLD	10	0	5	192
TAP	11	0	4
TAP	11	192	5
HLD	12	0	4	192
HLD	12	0	5	192
HLD	13	0	3	192
HLD	14	0	2	192
TAP	15	0	3
TAP	15	192	2
HLD	16	0	2	384
HLD	16	0	3	384
TAP	18	0	2
TAP	18	96	2
TAP	18	192	2
TAP	19	0	1
TAP	19	96	1
TAP	19	192	1
TAP	20	0	0
TAP	20	96	0
TAP	20	192	7
TAP	20	288	7
HLD	21	0	0	192
TAP	22	0	6
TAP	22	96	6
TAP	22	192	6
TAP	23	0	5
TAP	23	96	5
TAP	23	192	5
TAP	24	0	4
TAP	24	96	4
TAP	24	192	3
TAP	24	288	3
HLD	25	0	4	384
STR	27	0	5
SI_	27	0	5	96	288	1
STR	29	0	2
SI_	29	0	2	96	288	6
TAP	31	0	6
TAP	31	0	7
TAP	31	192	0
TAP	31	192	7
TAP	32	0	0
TAP	32	0	1
TAP	33	0	1
TAP	33	192	2
HLD	34	0	3	384
HLD	34	0	4	384
TAP	36	0	3
TAP	36	192	3
TAP	37	0	4
TAP	37	192	4
TAP	38	0	3
TAP	38	192	3
TAP	38	192	4
TAP	39	0	4
TAP	39	192	3
TAP	39	192	4
TAP	40	0	3
TAP	40	192	4
TAP	41	0	3
TAP	41	192	2
TAP	41	192	4
TAP	42	0	4
TAP	42	192	3
TAP	42	192	5
TAP	43	0	3
TAP	43	192	2
TAP	44	0	1
TAP	44	192	0
TAP	44	192	7
HLD	45	0	1	192
HLD	45	0	6	192
TAP	46	0	0
TAP	46	96	0
TAP	46	192	0
TAP	47	0	0
TAP	47	0	1
TAP	47	192	0
TAP	47	192	1
TAP	48	0	7
TAP	48	96	7
TAP	48	192	7
TAP	49	0	6
TAP	49	0	7
TAP	49	192	6
TAP	49	192	7
TAP	50	0	5
TAP	50	96	5
TAP	50	192	5
TAP	51	0	4
TAP	51	0	5
TAP	51	192	4
TAP	51	192	5
TAP	52	0	3
TAP	52	96	3
TAP	52	192	3
TAP	53	0	2
TAP	53	0	3
TAP	53	192	2
TAP	53	192	3
HLD	54	0	4	192
TAP	55	0	3
TAP	55	0	4
TAP	55	192	2
TAP	55	192	5
HLD	56	0	3	192
TAP	57	0	3
TAP	57	0	4
TAP	57	192	2
TAP	57	192	5
TAP	58	0	5
TAP	58	96	5
TAP	58	192	5
TAP	59	0	6
TAP	59	96	6
TAP	59	192	6
TAP	60	0	7
TAP	60	96	7
TAP	60	192	7
TAP	61	0	0
TAP	61	96	0
TAP	61	192	0
TAP	62	0	0
TAP	62	0	1
TAP	62	192	0
TAP	62	192	1
TAP	63	0	6
TAP	63	0	7
TAP	63	192	6
TAP	63	192	7
HLD	64	0	0	192
HLD	64	0	7	192
TAP	65	0	0
TAP	65	0	7
BRK	65	192	1
BRK	65	192	6
STR	66	0	2
SI_	66	0	2	96	288	6
STR	68	0	5
SI_	68	0	5	96	288	1
TAP	70	0	0
TAP	70	0	1
TAP	70	192	0
TAP	70	192	7
TAP	71	0	6
TAP	71	0	7
TAP	72	0	6
TAP	72	192	5
STR	73	0	3
SI_	73	0	3	96	288	0
STR	73	0	4
SI_	73	0	4	96	288	7
TAP	75	0	1
TAP	75	192	2
HLD	76	0	3	192
TAP	77	0	4
TAP	77	96	4
TAP	77	192	4
TAP	78	0	5
TAP	78	96	5
TAP	78	192	5
TAP	79	0	6
TAP	79	0	7
TAP	79	192	6
TAP	79	192	7
TAP	80	0	0
TAP	80	0	7
TAP	80	96	0
TAP	80	96	7

T_REC_TAP	145
T_REC_BRK	2
T_REC_XTP	0
T_REC_HLD	19
T_REC_XHO	0
T_REC_STR	6
T_REC_BST	0
T_REC_XST	0
T_REC_TTP	0
T_REC_THO	0
T_REC_SLD	6
T_REC_ALL	178
T_NUM_TAP	151
T_NUM_BRK	2
T_NUM_HLD	19
T_NUM_SLD	6
T_NUM_ALL	178
T_JUDGE_TAP	153
T_JUDGE_HLD	96
T_JUDGE_SLD	6
T_JUDGE_ALL	255
TTM_EACHPAIRS	40
TTM_SCR_TAP	75500
TTM_SCR_BRK	5200
TTM_SCR_HLD	19000
TTM_SCR_SLD	9000
TTM_SCR_ALL	108700
TTM_SCR_S	105250
TTM_SCR_SS	108500
TTM_RAT_ACV	10018

