VERSION	0.00.00	1.03.00
FES_MODE	0
BPM_DEF	 75.000	190.000	190.000	 75.000
MET_DEF	4	4
RESOLUTION	384
CLK_DEF	384
COMPATIBLE_CODE	MA2

BPM	0	0	 75.000
BPM	4	0	190.000
MET	0	0	4	4

TAP	1	160	0
TAP	1	176	1
TAP	1	192	3
TAP	1	208	6
STR	1	288	1
SV_	1	288	1	48	48	3
STR	1	288	5
SV_	1	288	5	48	48	7
TAP	2	72	2
STR	2	104	2
SCR	2	104	2	48	28	4
BRK	2	216	7
HLD	2	296	3	160
HLD	2	296	5	440
STR	3	132	4
SCL	3	132	4	48	172	6
TAP	4	0	1
TAP	4	0	6
TAP	4	96	1
TAP	4	96	6
TAP	4	144	0
TAP	4	144	7
TAP	4	240	0
TAP	4	240	7
BRK	4	288	1
BRK	4	288	6
TAP	5	0	3
TAP	5	24	4
TAP	5	48	3
TAP	5	72	4
TAP	5	96	3
TAP	5	120	4
TAP	5	144	3
TAP	5	168	4
TAP	5	192	2
TAP	5	216	5
TAP	5	240	2
TAP	5	264	5
TAP	5	288	1
TAP	5	312	6
TAP	5	336	1
TAP	5	360	6
TAP	6	0	0
TAP	6	24	7
TAP	6	48	0
TAP	6	96	1
TAP	6	96	6
TAP	6	144	0
TAP	6	144	7
TAP	6	192	1
TAP	6	192	6
TAP	6	240	5
TAP	6	288	4
TAP	6	336	3
STR	7	0	2
SCL	7	0	2	96	48	7
STR	7	96	5
SCR	7	96	5	96	48	0
STR	7	192	3
SUL	7	192	3	96	48	6
STR	7	288	4
SCL	7	288	4	96	144	5
TAP	8	192	1
TAP	8	240	0
TAP	8	288	3
TAP	8	288	6
STR	9	0	5
SCR	9	0	5	96	48	0
STR	9	96	2
SCL	9	96	2	96	48	7
STR	9	192	4
SUR	9	192	4	96	48	1
STR	9	288	3
SCR	9	288	3	96	144	2
STR	10	192	0
SI_	10	192	0	96	48	4
TAP	10	192	4
BRK	10	288	0
STR	11	0	2
SCL	11	0	2	96	48	7
STR	11	96	5
SCR	11	96	5	96	48	0
STR	11	192	3
SUL	11	192	3	96	48	6
STR	11	288	4
SCL	11	288	4	96	144	5
TAP	12	192	1
TAP	12	240	0
TAP	12	288	3
TAP	12	288	6
TAP	13	0	5
TAP	13	48	2
TAP	13	72	3
TAP	13	96	2
TAP	13	144	1
TAP	13	192	6
TAP	13	240	4
TAP	13	288	1
TAP	13	336	3
TAP	14	0	5
TAP	14	48	3
STR	14	96	1
SCR	14	96	1	96	48	4
TAP	14	144	7
TAP	14	192	7
BRK	14	288	0
BRK	14	288	6
STR	15	0	4
SCL	15	0	4	96	48	1
TAP	15	0	5
TAP	15	96	5
STR	15	192	4
SUL	15	192	4	96	48	7
TAP	15	192	6
TAP	15	288	6
STR	16	0	4
SCL	16	0	4	96	48	1
TAP	16	0	5
TAP	16	96	5
STR	16	192	4
SUL	16	192	4	96	48	7
TAP	16	192	6
TAP	16	288	6
STR	17	0	4
SCL	17	0	4	96	48	1
TAP	17	0	5
TAP	17	48	5
TAP	17	96	5
STR	17	192	4
SUL	17	192	4	96	48	7
TAP	17	192	6
TAP	17	288	6
STR	18	0	4
SCL	18	0	4	96	48	1
TAP	18	0	5
TAP	18	96	5
STR	18	192	4
SUL	18	192	4	96	48	7
TAP	18	192	6
TAP	18	288	6
STR	19	0	4
SCL	19	0	4	96	48	1
TAP	19	0	5
TAP	19	96	5
STR	19	192	4
SI_	19	192	4	96	48	0
TAP	19	192	6
TAP	19	288	6
STR	20	0	4
SV_	20	0	4	96	48	7
TAP	20	0	5
TAP	20	48	5
TAP	20	96	5
STR	20	192	4
SUL	20	192	4	96	48	0
TAP	20	192	6
TAP	20	288	6
TAP	21	0	3
TAP	21	0	4
TAP	21	48	4
TAP	21	48	5
TAP	21	96	3
TAP	21	96	4
TAP	21	144	2
TAP	21	144	3
TAP	21	192	3
TAP	21	192	4
TAP	21	288	3
TAP	21	288	4
TAP	22	0	0
TAP	22	24	7
TAP	22	48	0
TAP	22	72	7
TAP	22	96	0
TAP	22	120	7
TAP	22	144	0
TAP	22	168	7
STR	22	192	1
SI_	22	192	1	96	48	5
TAP	22	240	1
BRK	22	288	0
TAP	23	0	2
STR	23	0	3
SI_	23	0	3	96	48	7
TAP	23	96	2
TAP	23	192	2
STR	23	192	4
SI_	23	192	4	96	48	0
TAP	23	288	2
STR	24	0	4
SI_	24	0	4	96	48	0
TAP	24	0	5
TAP	24	96	5
STR	24	192	3
SI_	24	192	3	96	48	7
TAP	24	192	5
TAP	24	288	5
TAP	25	0	2
STR	25	0	3
SI_	25	0	3	96	48	6
TAP	25	48	2
TAP	25	96	2
TAP	25	192	2
STR	25	192	4
SI_	25	192	4	96	48	1
TAP	25	288	2
STR	26	0	4
SI_	26	0	4	96	48	1
TAP	26	0	5
TAP	26	96	5
STR	26	192	3
SI_	26	192	3	96	48	6
TAP	26	192	5
TAP	26	288	5
TAP	27	0	2
STR	27	0	3
SUR	27	0	3	96	48	7
TAP	27	96	2
STR	27	192	0
SUL	27	192	0	96	48	3
TAP	27	192	2
TAP	27	288	2
STR	28	0	4
SUL	28	0	4	96	48	0
TAP	28	0	5
TAP	28	48	5
TAP	28	96	5
TAP	28	192	5
STR	28	192	7
SUR	28	192	7	96	48	4
TAP	28	288	5
TAP	29	0	6
TAP	29	48	5
TAP	29	96	4
TAP	29	144	3
HLD	29	192	2	96
TAP	29	288	3
STR	30	0	6
SUL	30	0	6	96	192	3
BRK	30	192	7
STR	31	0	0
SI_	31	0	0	96	48	5
STR	31	0	1
SI_	31	0	1	96	48	4
TAP	31	48	0
TAP	31	48	1
STR	31	192	6
SI_	31	192	6	96	48	3
STR	31	192	7
SI_	31	192	7	96	48	2
TAP	31	240	6
TAP	31	240	7
TAP	32	0	0
TAP	32	24	7
TAP	32	48	0
TAP	32	72	7
TAP	32	96	1
TAP	32	120	6
TAP	32	144	1
TAP	32	168	6
TAP	32	192	0
TAP	32	216	7
TAP	32	240	0
STR	32	288	1
SI_	32	288	1	96	48	4
STR	32	288	6
SI_	32	288	6	96	48	3
TAP	33	0	1
TAP	33	0	6
STR	33	96	0
SI_	33	96	0	96	48	4
STR	33	96	7
SI_	33	96	7	96	48	3
BRK	33	192	0
BRK	33	192	7
TAP	33	288	1
TAP	33	288	6
TAP	34	0	2
STR	34	0	5
SCL	34	0	5	96	48	2
TAP	34	96	5
TAP	34	192	0
TAP	34	216	7
TAP	34	240	0
BRK	34	288	1
BRK	34	288	6
STR	35	0	6
SCL	35	0	6	96	48	3
STR	35	0	7
SCR	35	0	7	96	48	2
TAP	35	48	6
TAP	35	48	7
STR	35	192	0
SCL	35	192	0	96	48	5
STR	35	192	1
SCR	35	192	1	96	48	4
TAP	35	240	0
TAP	35	240	1
TAP	36	0	7
TAP	36	24	0
TAP	36	48	7
TAP	36	72	0
TAP	36	96	6
TAP	36	120	1
TAP	36	144	6
TAP	36	168	1
TAP	36	192	7
TAP	36	216	0
TAP	36	240	7
STR	36	288	1
SI_	36	288	1	96	48	5
STR	36	288	6
SI_	36	288	6	96	48	2
TAP	37	0	1
TAP	37	0	6
STR	37	96	0
SI_	37	96	0	96	48	5
STR	37	96	7
SI_	37	96	7	96	48	2
BRK	37	192	0
BRK	37	192	7
TAP	37	288	3
TAP	37	288	4
STR	38	0	2
SCR	38	0	2	96	48	5
TAP	38	0	5
TAP	38	96	2
TAP	38	192	7
TAP	38	216	0
TAP	38	240	7
BRK	38	288	1
BRK	38	288	6
HLD	39	0	3	144
HLD	39	0	4	48
HLD	39	96	6	144
HLD	39	192	1	96
TAP	39	288	0
BRK	40	0	3
BRK	40	0	4
HLD	40	96	0	48
HLD	40	96	7	48
TAP	40	192	1
TAP	40	192	6
TAP	40	240	1
TAP	40	240	6
TAP	40	288	3
TAP	40	288	4
HLD	41	0	3	48
HLD	41	0	6	288
HLD	41	96	1	48
HLD	41	192	7	48
TAP	41	288	0
BRK	42	0	3
BRK	42	0	4
BRK	42	48	3
BRK	42	48	4
BRK	42	96	3
BRK	42	96	4
TAP	42	192	1
TAP	42	192	6
TAP	42	288	3
TAP	42	288	4
STR	43	0	0
SI_	43	0	0	96	48	4
STR	43	0	7
SI_	43	0	7	96	48	3
TAP	43	48	0
TAP	43	48	7
TAP	43	192	1
TAP	43	192	6
TAP	43	288	3
TAP	43	288	4
TAP	44	0	2
TAP	44	0	5
STR	44	96	0
SI_	44	96	0	96	48	3
STR	44	96	7
SI_	44	96	7	96	48	4
BRK	44	192	0
BRK	44	192	7
TAP	44	288	2
TAP	44	288	5
STR	45	0	7
SCL	45	0	7	96	96	3
STR	45	96	3
SCL	45	96	3	96	96	7
STR	45	192	7
SCL	45	192	7	96	96	3
STR	45	288	3
SCL	45	288	3	96	96	7
STR	46	0	7
SCL	46	0	7	96	96	4
STR	46	96	4
SI_	46	96	4	96	48	0
TAP	46	192	0
BRK	46	288	1
BRK	46	288	6
TAP	47	0	1
TAP	47	48	1
TAP	47	48	3
TAP	47	96	1
STR	47	144	1
SCR	47	144	1	96	48	4
TAP	47	144	7
TAP	47	192	1
TAP	47	240	5
TAP	47	288	6
HLD	47	336	6	96
TAP	48	48	4
TAP	48	96	6
TAP	48	144	0
STR	48	144	6
SCL	48	144	6	96	48	3
TAP	48	192	6
TAP	48	240	2
TAP	48	288	1
HLD	48	336	1	96
TAP	49	48	3
TAP	49	96	1
STR	49	144	1
SCR	49	144	1	96	48	4
TAP	49	144	7
TAP	49	192	1
TAP	49	240	5
TAP	49	288	6
TAP	49	336	7
TAP	49	360	0
TAP	50	0	7
TAP	50	96	2
TAP	50	96	5
STR	50	192	3
SI_	50	192	3	96	48	0
STR	50	192	4
SI_	50	192	4	96	48	7
TAP	50	240	3
TAP	50	240	4
TAP	51	0	5
TAP	51	48	5
TAP	51	48	7
TAP	51	96	5
TAP	51	144	3
STR	51	144	5
SCR	51	144	5	96	48	0
TAP	51	192	5
TAP	51	240	1
TAP	51	288	2
HLD	51	336	2	96
TAP	52	48	3
TAP	52	96	1
STR	52	144	1
SCL	52	144	1	96	48	7
TAP	52	144	4
TAP	52	192	1
TAP	52	240	6
TAP	52	288	5
TAP	52	336	5
TAP	52	360	4
STR	53	0	6
SI_	53	0	6	96	48	3
TAP	53	48	2
TAP	53	96	1
STR	53	144	0
SI_	53	144	0	96	48	4
TAP	53	192	5
TAP	53	240	6
BRK	53	288	7
TAP	54	48	3
TAP	54	48	4
TAP	54	96	2
TAP	54	96	5
TAP	54	144	1
TAP	54	144	6
TAP	54	192	2
TAP	54	216	3
TAP	54	240	2
TAP	54	288	5
TAP	54	312	4
TAP	54	336	5
BRK	55	0	1
BRK	55	0	6
TAP	55	192	3
TAP	55	216	4
TAP	55	240	3
TAP	55	264	4
TAP	55	288	3
TAP	55	312	4
TAP	55	336	3
TAP	56	0	6
TAP	56	0	7
TAP	56	48	6
TAP	56	72	7
TAP	56	96	5
TAP	56	120	0
TAP	56	144	4
TAP	56	168	1
TAP	56	192	3
TAP	56	240	2
TAP	56	240	4
STR	56	336	5
SCR	56	336	5	96	48	0
TAP	57	48	2
STR	57	96	2
SCL	57	96	2	96	48	7
STR	57	192	4
SUR	57	192	4	96	48	1
BRK	57	288	3
TAP	58	0	0
TAP	58	0	1
TAP	58	48	1
TAP	58	72	0
TAP	58	96	2
TAP	58	120	7
TAP	58	144	3
TAP	58	168	6
TAP	58	192	4
TAP	58	240	3
TAP	58	240	5
STR	58	336	2
SCL	58	336	2	96	48	7
TAP	59	48	5
STR	59	96	5
SCR	59	96	5	96	48	0
STR	59	192	3
SUL	59	192	3	96	48	6
BRK	59	288	4
TAP	60	0	6
TAP	60	0	7
TAP	60	48	6
TAP	60	72	7
TAP	60	96	5
TAP	60	120	0
TAP	60	144	4
TAP	60	168	1
TAP	60	192	3
TAP	60	240	2
TAP	60	240	4
STR	60	336	5
SCR	60	336	5	96	48	0
TAP	61	48	2
STR	61	96	2
SCL	61	96	2	96	48	7
STR	61	192	4
SUR	61	192	4	96	48	1
BRK	61	288	3
TAP	62	0	2
TAP	62	48	5
TAP	62	72	4
TAP	62	96	5
TAP	62	144	6
TAP	62	192	1
TAP	62	192	3
TAP	62	240	2
TAP	62	288	4
TAP	62	288	6
TAP	62	336	5
TAP	63	0	2
TAP	63	48	4
STR	63	96	6
SCL	63	96	6	96	48	3
TAP	63	144	0
TAP	63	192	0
TAP	63	288	0
TAP	63	288	7
TAP	63	348	1
TAP	63	348	6
TAP	64	12	2
TAP	64	12	5
TAP	64	60	3
TAP	64	60	4
STR	64	204	1
SV_	64	204	1	96	288	4
STR	64	204	6
SI_	64	204	6	96	288	1

T_REC_TAP	337
T_REC_BRK	34
T_REC_XTP	0
T_REC_HLD	16
T_REC_XHO	0
T_REC_STR	93
T_REC_BST	0
T_REC_XST	0
T_REC_TTP	0
T_REC_THO	0
T_REC_SLD	93
T_REC_ALL	573
T_NUM_TAP	430
T_NUM_BRK	34
T_NUM_HLD	16
T_NUM_SLD	93
T_NUM_ALL	573
T_JUDGE_TAP	464
T_JUDGE_HLD	54
T_JUDGE_SLD	93
T_JUDGE_ALL	611
TTM_EACHPAIRS	114
TTM_SCR_TAP	215000
TTM_SCR_BRK	88400
TTM_SCR_HLD	16000
TTM_SCR_SLD	139500
TTM_SCR_ALL	458900
TTM_SCR_S	441850
TTM_SCR_SS	455500
TTM_RAT_ACV	10074

