VERSION	0.00.00	1.03.00
FES_MODE	0
BPM_DEF	 75.000	190.000	190.000	 75.000
MET_DEF	4	4
RESOLUTION	384
CLK_DEF	384
COMPATIBLE_CODE	MA2

BPM	0	0	 75.000
BPM	4	0	190.000
MET	0	0	4	4

TAP	1	0	2
HLD	1	0	3	192
HLD	1	192	4	192
HLD	2	0	3	192
HLD	2	192	2	192
HLD	3	0	6	192
HLD	3	192	0	192
BRK	4	0	7
BRK	4	144	7
BRK	4	288	7
HLD	5	0	1	96
TAP	5	96	7
HLD	5	192	6	96
TAP	5	288	0
TAP	6	0	0
TAP	6	48	7
TAP	6	96	0
TAP	6	144	7
TAP	6	192	0
TAP	6	240	4
TAP	6	288	3
TAP	6	336	5
STR	7	0	6
SI_	7	0	6	96	48	2
TAP	7	0	7
TAP	7	192	0
STR	7	192	1
SI_	7	192	1	96	48	5
TAP	8	0	4
TAP	8	0	6
TAP	8	96	3
TAP	8	96	5
TAP	8	192	2
TAP	8	192	4
TAP	8	288	1
TAP	8	288	3
STR	9	0	0
SI_	9	0	0	96	48	4
TAP	9	0	1
TAP	9	192	6
STR	9	192	7
SI_	9	192	7	96	48	3
STR	10	0	4
SUL	10	0	4	96	96	3
BRK	10	288	0
BRK	10	288	7
STR	11	0	2
SI_	11	0	2	96	48	6
TAP	11	0	3
TAP	11	192	4
STR	11	192	5
SI_	11	192	5	96	48	1
TAP	12	0	0
TAP	12	0	2
TAP	12	96	1
TAP	12	96	7
TAP	12	192	0
TAP	12	192	6
TAP	12	288	5
TAP	12	288	7
TAP	13	0	5
TAP	13	48	3
TAP	13	96	4
TAP	13	192	2
TAP	13	240	4
TAP	13	288	3
TAP	14	0	0
TAP	14	0	7
TAP	14	96	1
TAP	14	96	6
TAP	14	192	2
TAP	14	192	5
BRK	14	288	0
TAP	15	0	2
TAP	15	96	2
TAP	15	96	3
TAP	15	192	5
TAP	15	288	4
TAP	15	288	5
TAP	16	0	3
TAP	16	96	2
TAP	16	96	3
TAP	16	192	4
TAP	16	288	4
TAP	16	288	5
TAP	17	0	0
TAP	17	96	1
TAP	17	96	7
TAP	17	192	7
TAP	17	288	0
TAP	17	288	6
STR	18	0	0
SI_	18	0	0	96	48	5
STR	18	0	1
SI_	18	0	1	96	48	4
TAP	18	192	2
TAP	18	192	7
TAP	19	0	5
TAP	19	96	4
TAP	19	96	6
TAP	19	192	2
TAP	19	288	1
TAP	19	288	3
TAP	20	0	6
TAP	20	96	5
TAP	20	96	7
TAP	20	192	1
TAP	20	288	0
TAP	20	288	2
TAP	21	0	7
TAP	21	48	0
TAP	21	96	7
TAP	21	192	4
TAP	21	192	5
TAP	21	288	2
TAP	21	288	3
TAP	22	0	0
HLD	22	0	1	192
STR	22	192	3
SI_	22	192	3	96	48	7
BRK	22	288	0
TAP	23	0	6
TAP	23	48	7
TAP	23	96	6
TAP	23	192	1
TAP	23	240	0
TAP	23	288	1
TAP	24	0	5
TAP	24	48	4
TAP	24	96	5
TAP	24	192	2
TAP	24	240	3
TAP	24	288	2
TAP	25	0	6
TAP	25	48	5
TAP	25	96	6
TAP	25	192	1
TAP	25	240	2
TAP	25	288	1
STR	26	0	6
SI_	26	0	6	96	48	3
STR	26	0	7
SI_	26	0	7	96	48	2
TAP	26	192	0
TAP	26	192	5
TAP	27	0	1
TAP	27	48	0
TAP	27	96	2
TAP	27	96	7
TAP	27	192	6
TAP	27	240	7
TAP	27	288	0
TAP	27	288	5
TAP	28	0	2
TAP	28	48	3
TAP	28	96	1
TAP	28	96	4
TAP	28	192	5
TAP	28	240	4
TAP	28	288	3
TAP	28	288	6
TAP	29	0	3
TAP	29	48	4
TAP	29	96	3
TAP	29	192	0
TAP	29	192	1
TAP	29	288	3
TAP	29	288	4
STR	30	0	6
SCL	30	0	6	96	96	3
STR	30	0	7
SCR	30	0	7	96	96	2
STR	31	0	1
SUR	31	0	1	96	48	5
TAP	31	48	1
STR	31	192	6
SUL	31	192	6	96	48	2
TAP	31	240	6
TAP	32	0	0
TAP	32	96	7
STR	32	192	1
SI_	32	192	1	96	48	5
STR	32	192	6
SI_	32	192	6	96	48	2
TAP	33	0	0
TAP	33	0	6
TAP	33	48	0
TAP	33	192	1
TAP	33	192	7
TAP	33	240	7
STR	34	0	6
SCL	34	0	6	96	72	2
STR	34	192	0
SI_	34	192	0	96	48	4
BRK	34	288	7
STR	35	0	5
SUR	35	0	5	96	48	1
TAP	35	48	5
STR	35	192	2
SUL	35	192	2	96	48	6
TAP	35	240	2
TAP	36	0	4
TAP	36	96	3
STR	36	192	1
SI_	36	192	1	96	48	5
STR	36	192	6
SI_	36	192	6	96	48	2
TAP	37	0	3
TAP	37	0	7
TAP	37	48	7
TAP	37	192	0
TAP	37	192	4
TAP	37	240	0
STR	38	0	1
SCR	38	0	1	96	72	5
STR	38	192	7
SI_	38	192	7	96	48	3
BRK	38	288	0
HLD	39	0	1	192
TAP	39	96	0
HLD	39	192	2	192
TAP	39	288	3
HLD	40	0	1	96
TAP	40	96	0
TAP	40	192	2
TAP	40	192	3
TAP	40	288	1
TAP	40	288	6
HLD	41	0	6	192
TAP	41	96	7
HLD	41	192	5	192
TAP	41	288	4
BRK	42	0	7
BRK	42	48	7
TAP	42	96	7
TAP	42	192	4
TAP	42	192	5
TAP	42	288	1
TAP	42	288	6
STR	43	0	0
SI_	43	0	0	96	48	4
STR	43	0	1
SI_	43	0	1	96	48	5
STR	43	192	6
SI_	43	192	6	96	48	2
STR	43	192	7
SI_	43	192	7	96	48	3
STR	44	0	1
SCR	44	0	1	96	48	4
STR	44	0	5
SCR	44	0	5	96	48	0
BRK	44	192	2
BRK	44	192	6
TAP	45	0	1
TAP	45	48	0
TAP	45	96	1
TAP	45	192	6
TAP	45	240	7
TAP	45	288	6
TAP	46	0	3
TAP	46	0	4
TAP	46	96	2
TAP	46	96	5
STR	46	192	1
SI_	46	192	1	96	48	4
TAP	46	192	6
BRK	46	288	7
HLD	47	0	5	96
HLD	47	96	6	96
TAP	47	192	7
TAP	47	240	7
HLD	47	336	2	144
HLD	48	96	1	96
TAP	48	192	0
TAP	48	240	0
HLD	48	336	4	144
HLD	49	96	5	96
TAP	49	192	6
TAP	49	240	6
TAP	50	0	0
TAP	50	0	1
TAP	50	96	2
TAP	50	96	7
TAP	50	192	3
TAP	50	192	6
TAP	50	240	3
TAP	50	240	6
HLD	51	0	5	96
HLD	51	96	3	96
TAP	51	192	1
TAP	51	240	1
HLD	51	336	2	144
HLD	52	96	4	96
TAP	52	192	6
TAP	52	240	6
STR	53	0	7
SI_	53	0	7	96	48	3
STR	53	144	1
SI_	53	144	1	96	48	5
STR	53	288	4
SCL	53	288	4	96	384	5
BRK	55	192	0
BRK	55	192	7
HLD	56	0	1	96
TAP	56	96	0
HLD	56	192	6	96
TAP	56	288	7
TAP	57	0	0
TAP	57	0	1
TAP	57	96	2
TAP	57	96	7
TAP	57	192	3
TAP	57	192	6
TAP	57	288	4
TAP	57	288	5
HLD	58	0	5	96
TAP	58	96	7
HLD	58	192	2	96
TAP	58	288	0
TAP	59	0	0
TAP	59	0	6
TAP	59	96	1
TAP	59	96	7
STR	59	192	0
SI_	59	192	0	96	48	4
TAP	59	192	6
BRK	59	288	7
HLD	60	0	6	96
TAP	60	96	4
HLD	60	192	1	96
TAP	60	288	3
TAP	61	0	2
TAP	61	0	3
TAP	61	96	1
TAP	61	96	4
TAP	61	192	0
TAP	61	192	5
TAP	61	288	6
TAP	61	288	7
TAP	62	0	1
TAP	62	48	0
TAP	62	96	2
TAP	62	192	6
TAP	62	240	7
TAP	62	288	5
TAP	63	0	0
TAP	63	0	7
TAP	63	48	0
TAP	63	48	7
TAP	63	96	1
TAP	63	96	6
TAP	63	144	1
TAP	63	144	6
TAP	63	192	2
TAP	63	192	5
TAP	63	288	3
TAP	63	336	4
TAP	64	0	0
TAP	64	48	7
BRK	64	216	1
BRK	64	216	6

T_REC_TAP	238
T_REC_BRK	19
T_REC_XTP	0
T_REC_HLD	30
T_REC_XHO	0
T_REC_STR	37
T_REC_BST	0
T_REC_XST	0
T_REC_TTP	0
T_REC_THO	0
T_REC_SLD	37
T_REC_ALL	361
T_NUM_TAP	275
T_NUM_BRK	19
T_NUM_HLD	30
T_NUM_SLD	37
T_NUM_ALL	361
T_JUDGE_TAP	294
T_JUDGE_HLD	109
T_JUDGE_SLD	37
T_JUDGE_ALL	440
TTM_EACHPAIRS	82
TTM_SCR_TAP	137500
TTM_SCR_BRK	49400
TTM_SCR_HLD	30000
TTM_SCR_SLD	55500
TTM_SCR_ALL	272400
TTM_SCR_S	262400
TTM_SCR_SS	270500
TTM_RAT_ACV	10070

