VERSION	0.00.00	1.03.00
FES_MODE	0
BPM_DEF	 75.000	190.000	190.000	 75.000
MET_DEF	4	4
RESOLUTION	384
CLK_DEF	384
COMPATIBLE_CODE	MA2

BPM	0	0	 75.000
BPM	4	0	190.000
MET	0	0	4	4

TAP	7	0	2
TAP	7	96	2
TAP	7	192	3
TAP	7	288	3
TAP	8	0	2
TAP	8	96	3
TAP	8	192	1
TAP	8	192	4
TAP	9	0	3
TAP	9	96	3
TAP	9	192	4
TAP	9	288	4
TAP	10	0	3
TAP	10	0	4
TAP	10	96	2
TAP	10	96	5
TAP	10	192	2
TAP	10	192	5
TAP	11	0	5
TAP	11	96	5
TAP	11	192	4
TAP	11	288	4
TAP	12	0	5
TAP	12	96	4
TAP	12	192	3
TAP	12	192	6
TAP	13	0	3
TAP	13	0	4
TAP	13	192	3
TAP	13	192	4
TAP	14	0	2
TAP	14	0	5
TAP	14	96	1
TAP	14	96	6
TAP	14	192	0
TAP	14	192	7
TAP	15	0	0
TAP	15	0	1
TAP	15	192	0
TAP	15	192	1
TAP	16	0	2
TAP	16	96	3
TAP	16	192	4
TAP	16	288	5
TAP	17	0	6
TAP	17	0	7
TAP	17	192	6
TAP	17	192	7
TAP	18	0	5
TAP	18	96	4
TAP	18	192	3
TAP	18	288	2
TAP	19	0	0
TAP	19	0	7
TAP	19	192	0
TAP	19	192	7
TAP	20	0	1
TAP	20	96	6
TAP	20	192	1
TAP	20	288	6
HLD	21	0	1	96
TAP	21	96	0
HLD	21	192	6	96
TAP	21	288	7
STR	22	0	0
SI_	22	0	0	96	192	3
STR	22	0	7
SI_	22	0	7	96	192	4
TAP	23	0	2
TAP	23	0	3
TAP	23	192	4
TAP	23	192	5
TAP	24	0	2
TAP	24	96	3
TAP	24	192	1
TAP	24	192	4
TAP	24	288	3
TAP	25	0	4
TAP	25	0	5
TAP	25	192	2
TAP	25	192	3
TAP	26	0	5
TAP	26	96	4
TAP	26	192	3
TAP	26	192	6
TAP	26	288	4
TAP	27	0	2
TAP	27	0	3
TAP	27	192	4
TAP	27	192	5
TAP	28	0	3
TAP	28	0	4
TAP	28	96	2
TAP	28	96	5
TAP	28	192	1
TAP	28	192	6
TAP	28	288	0
TAP	28	288	7
HLD	29	0	0	96
HLD	29	0	1	96
HLD	29	192	6	96
HLD	29	192	7	96
STR	30	0	0
SCR	30	0	0	96	192	3
STR	30	0	7
SCL	30	0	7	96	192	4
HLD	31	0	2	192
HLD	31	192	3	192
TAP	32	0	4
TAP	32	96	5
TAP	32	192	6
TAP	32	192	7
HLD	33	0	5	192
HLD	33	192	4	192
TAP	34	0	3
TAP	34	96	2
TAP	34	192	0
TAP	34	192	1
HLD	35	0	1	192
HLD	35	192	3	192
TAP	36	0	4
TAP	36	96	5
TAP	36	192	6
TAP	36	192	7
HLD	37	0	6	192
HLD	37	192	4	192
TAP	38	0	3
TAP	38	96	2
TAP	38	192	0
TAP	38	192	1
TAP	39	0	2
TAP	39	96	2
TAP	39	192	3
TAP	39	288	2
TAP	40	0	1
TAP	40	96	4
TAP	40	192	2
TAP	40	288	2
TAP	41	0	5
TAP	41	96	5
TAP	41	192	4
TAP	41	288	5
TAP	42	0	6
TAP	42	96	3
TAP	42	192	5
TAP	42	288	5
STR	43	0	1
SI_	43	0	1	96	96	4
STR	43	192	6
SI_	43	192	6	96	96	3
TAP	44	0	0
TAP	44	96	7
TAP	44	192	0
TAP	44	192	7
TAP	45	0	0
TAP	45	96	0
TAP	45	192	7
TAP	45	288	7
TAP	46	0	0
TAP	46	96	7
BRK	46	192	1
BRK	46	192	6
TAP	47	0	2
TAP	47	96	3
TAP	47	192	2
TAP	47	240	2
TAP	48	0	5
TAP	48	96	4
TAP	48	192	5
TAP	48	240	5
TAP	49	0	6
TAP	49	96	7
TAP	49	192	6
TAP	49	240	6
TAP	50	0	1
TAP	50	96	0
TAP	50	192	1
TAP	50	240	1
TAP	51	0	3
TAP	51	96	2
TAP	51	192	2
TAP	51	192	3
TAP	51	240	2
TAP	51	240	3
TAP	52	0	4
TAP	52	96	5
TAP	52	192	4
TAP	52	192	5
TAP	52	240	4
TAP	52	240	5
STR	53	0	3
SSL	53	0	3	96	672	7
BRK	55	192	0
BRK	55	192	7
TAP	56	0	1
TAP	56	96	0
TAP	56	192	1
TAP	56	288	0
TAP	57	0	1
TAP	57	96	0
TAP	57	192	1
TAP	57	192	7
TAP	57	288	0
TAP	57	288	6
TAP	58	0	7
TAP	58	96	0
TAP	58	192	7
TAP	58	288	0
TAP	59	0	0
TAP	59	0	7
TAP	59	96	1
TAP	59	96	6
TAP	59	192	1
TAP	59	192	6
TAP	60	0	6
TAP	60	96	7
TAP	60	192	6
TAP	60	288	7
TAP	61	0	6
TAP	61	96	7
TAP	61	192	0
TAP	61	192	6
TAP	61	288	1
TAP	61	288	7
TAP	62	0	0
TAP	62	0	1
TAP	62	192	6
TAP	62	192	7
TAP	63	0	0
TAP	63	0	7
TAP	63	96	1
TAP	63	96	6
STR	63	192	0
SCR	63	192	0	96	288	3
STR	63	192	7
SCL	63	192	7	96	288	4

T_REC_TAP	200
T_REC_BRK	4
T_REC_XTP	0
T_REC_HLD	14
T_REC_XHO	0
T_REC_STR	9
T_REC_BST	0
T_REC_XST	0
T_REC_TTP	0
T_REC_THO	0
T_REC_SLD	9
T_REC_ALL	236
T_NUM_TAP	209
T_NUM_BRK	4
T_NUM_HLD	14
T_NUM_SLD	9
T_NUM_ALL	236
T_JUDGE_TAP	213
T_JUDGE_HLD	44
T_JUDGE_SLD	9
T_JUDGE_ALL	266
TTM_EACHPAIRS	55
TTM_SCR_TAP	104500
TTM_SCR_BRK	10400
TTM_SCR_HLD	14000
TTM_SCR_SLD	13500
TTM_SCR_ALL	142400
TTM_SCR_S	137750
TTM_SCR_SS	142000
TTM_RAT_ACV	10028

