VERSION	0.00.00	1.03.00
FES_MODE	0
BPM_DEF	 75.000	190.000	190.000	 75.000
MET_DEF	4	4
RESOLUTION	384
CLK_DEF	384
COMPATIBLE_CODE	MA2

BPM	0	0	 75.000
BPM	4	0	190.000
MET	0	0	4	4

TAP	7	0	0
TAP	7	192	0
TAP	8	0	1
TAP	8	96	1
TAP	8	192	1
TAP	9	0	2
TAP	9	192	2
TAP	10	0	2
TAP	10	0	3
TAP	10	96	2
TAP	10	96	3
TAP	10	192	2
TAP	10	192	3
TAP	11	0	4
TAP	11	192	4
TAP	12	0	5
TAP	12	96	5
TAP	12	192	5
TAP	13	0	6
TAP	13	0	7
TAP	13	192	6
TAP	13	192	7
TAP	14	0	0
TAP	14	0	7
TAP	14	96	0
TAP	14	96	7
BRK	14	192	0
BRK	14	192	7
TAP	15	0	0
TAP	15	192	0
TAP	16	0	1
TAP	16	192	1
TAP	17	0	2
TAP	17	192	2
TAP	18	0	3
TAP	18	192	3
TAP	19	0	4
TAP	19	192	4
TAP	20	0	5
TAP	20	192	5
HLD	21	0	6	192
TAP	22	0	7
TAP	22	192	0
TAP	22	192	7
TAP	23	0	7
TAP	23	192	7
TAP	24	0	6
TAP	24	96	6
TAP	24	192	6
TAP	25	0	5
TAP	25	192	5
TAP	26	0	4
TAP	26	96	4
TAP	26	192	4
TAP	27	0	3
TAP	27	192	3
TAP	28	0	2
TAP	28	96	2
TAP	28	192	2
HLD	29	0	1	192
TAP	30	0	0
BRK	30	192	0
BRK	30	192	7
TAP	31	0	0
TAP	31	192	0
TAP	32	0	1
TAP	32	96	1
TAP	32	192	1
TAP	33	0	7
TAP	33	192	7
TAP	34	0	6
TAP	34	96	6
TAP	34	192	6
TAP	35	0	5
TAP	35	192	5
TAP	36	0	4
TAP	36	96	4
TAP	36	192	4
TAP	37	0	2
TAP	37	192	2
TAP	38	0	3
TAP	38	96	3
TAP	38	192	3
TAP	39	0	4
TAP	39	192	3
TAP	40	0	2
TAP	40	0	3
TAP	40	192	2
TAP	40	192	3
TAP	41	0	3
TAP	41	192	4
HLD	42	0	4	192
HLD	42	0	5	192
TAP	43	0	4
TAP	43	0	5
TAP	43	192	2
TAP	43	192	3
TAP	44	0	3
TAP	44	0	4
TAP	44	192	2
TAP	44	192	5
TAP	45	0	2
TAP	45	192	1
TAP	46	0	0
TAP	46	0	7
TAP	46	96	0
TAP	46	96	7
BRK	46	192	0
BRK	46	192	7
TAP	47	0	6
TAP	47	96	6
TAP	47	192	6
TAP	48	0	5
TAP	48	96	5
TAP	48	192	5
TAP	49	0	4
TAP	49	96	4
TAP	49	192	4
TAP	50	0	2
TAP	50	0	3
TAP	50	192	2
TAP	50	192	3
TAP	51	0	1
TAP	51	96	1
TAP	51	192	1
TAP	52	0	2
TAP	52	96	2
TAP	52	192	2
HLD	53	0	3	144
HLD	53	0	4	144
HLD	53	288	2	480
HLD	53	288	5	480
TAP	55	192	3
TAP	55	192	4
STR	56	0	3
SI_	56	0	3	96	288	0
STR	56	0	4
SI_	56	0	4	96	288	7
TAP	58	0	0
TAP	58	96	0
TAP	58	192	0
TAP	59	0	7
TAP	59	96	7
BRK	59	192	7
TAP	60	0	1
TAP	60	96	1
TAP	60	192	0
TAP	60	192	1
TAP	61	0	6
TAP	61	96	6
TAP	61	192	6
TAP	61	192	7
TAP	62	0	1
TAP	62	0	7
TAP	62	192	0
TAP	62	192	6
TAP	63	0	0
TAP	63	0	7
TAP	63	96	0
TAP	63	96	7
TAP	63	192	0
TAP	63	192	7
HLD	63	288	0	288
HLD	63	288	7	288

T_REC_TAP	143
T_REC_BRK	7
T_REC_XTP	0
T_REC_HLD	10
T_REC_XHO	0
T_REC_STR	2
T_REC_BST	0
T_REC_XST	0
T_REC_TTP	0
T_REC_THO	0
T_REC_SLD	2
T_REC_ALL	164
T_NUM_TAP	145
T_NUM_BRK	7
T_NUM_HLD	10
T_NUM_SLD	2
T_NUM_ALL	164
T_JUDGE_TAP	152
T_JUDGE_HLD	54
T_JUDGE_SLD	2
T_JUDGE_ALL	208
TTM_EACHPAIRS	34
TTM_SCR_TAP	72500
TTM_SCR_BRK	18200
TTM_SCR_HLD	10000
TTM_SCR_SLD	3000
TTM_SCR_ALL	103700
TTM_SCR_S	99950
TTM_SCR_SS	103000
TTM_RAT_ACV	10067

