VERSION	0.00.00	1.03.00
FES_MODE	0
BPM_DEF	162.000	162.000	162.000	162.000
MET_DEF	4	4
RESOLUTION	384
CLK_DEF	384
COMPATIBLE_CODE	MA2

BPM	0	0	162.000
MET	0	0	4	4

TAP	1	0	0
TAP	1	0	7
TAP	1	96	0
TAP	1	96	7
TAP	1	192	0
TAP	1	192	7
TAP	1	240	1
TAP	1	240	6
TAP	1	288	2
TAP	1	288	5
TAP	1	336	3
TAP	2	0	4
TAP	2	48	2
TAP	2	96	5
TAP	2	144	1
TAP	2	240	7
STR	2	288	3
SI_	2	288	3	96	48	0
STR	3	0	4
SI_	3	0	4	96	48	7
STR	3	96	3
SI_	3	96	3	96	48	0
STR	3	192	4
SI_	3	192	4	96	48	7
STR	3	288	3
SI_	3	288	3	96	48	1
STR	4	0	4
SI_	4	0	4	96	48	6
STR	4	96	3
SI_	4	96	3	96	48	0
TAP	4	240	7
TAP	4	288	7
HLD	5	0	0	144
TAP	5	48	1
TAP	5	96	2
TAP	5	144	3
HLD	5	192	4	192
TAP	5	240	5
TAP	5	288	6
TAP	5	336	7
STR	6	0	0
SV_	6	0	0	96	96	3
SV_	6	0	0	96	96	5
TAP	6	288	1
TAP	6	288	6
STR	7	0	1
SI_	7	0	1	96	48	4
STR	7	96	0
SI_	7	96	0	96	48	5
STR	7	192	7
SI_	7	192	7	96	48	2
STR	7	288	6
SI_	7	288	6	96	48	3
HLD	8	0	0	288
HLD	8	192	7	96
BRK	9	0	2
BRK	9	0	5
TAP	9	96	0
TAP	9	96	7
TAP	9	168	2
TAP	9	192	3
TAP	9	240	1
TAP	9	240	4
TAP	9	288	1
TAP	9	288	4
TAP	10	0	0
TAP	10	0	7
TAP	10	96	2
TAP	10	96	5
TAP	10	168	5
TAP	10	192	4
TAP	10	240	3
TAP	10	240	6
TAP	10	288	3
TAP	10	288	6
TAP	11	0	3
TAP	11	0	4
TAP	11	96	1
TAP	11	96	6
TAP	11	168	1
TAP	11	192	0
TAP	11	240	2
TAP	11	240	7
TAP	11	288	2
TAP	11	288	7
TAP	12	0	6
TAP	12	0	7
TAP	12	96	0
TAP	12	96	1
TAP	12	192	7
TAP	12	216	0
TAP	12	264	5
TAP	12	288	4
TAP	12	336	2
TAP	12	360	3
STR	13	0	1
SI_	13	0	1	96	48	4
SI_	13	0	1	96	48	5
TAP	13	192	2
TAP	13	192	3
TAP	13	240	3
TAP	13	240	4
TAP	13	288	4
TAP	13	288	5
STR	14	0	6
SI_	14	0	6	96	48	2
SI_	14	0	6	96	48	3
TAP	14	192	4
TAP	14	192	5
TAP	14	240	3
TAP	14	240	4
TAP	14	288	2
TAP	14	288	3
TAP	15	0	3
TAP	15	72	1
TAP	15	72	5
TAP	15	144	7
STR	15	192	0
SXL	15	192	0	96	48	2
STR	15	240	6
SXR	15	240	6	96	48	4
TAP	16	0	0
TAP	16	72	2
TAP	16	72	6
TAP	16	144	4
TAP	16	192	1
TAP	16	192	5
TAP	16	288	0
TAP	16	312	7
TAP	16	336	0
TAP	16	360	7
TAP	17	0	1
HLD	17	48	1	96
HLD	17	144	2	96
TAP	17	240	1
TAP	17	264	2
TAP	17	288	3
TAP	18	0	6
HLD	18	48	6	96
HLD	18	144	5	96
TAP	18	240	6
TAP	18	264	5
TAP	18	288	4
TAP	19	0	2
HLD	19	48	2	96
TAP	19	144	3
TAP	19	240	6
TAP	19	240	7
TAP	19	264	0
TAP	19	264	5
TAP	19	288	1
TAP	19	288	4
HLD	20	0	6	96
HLD	20	0	7	96
STR	20	192	2
SI_	20	192	2	96	48	7
STR	20	192	3
SI_	20	192	3	96	48	6
TAP	21	0	0
TAP	21	72	1
HLD	21	144	2	192
TAP	21	192	1
TAP	21	264	0
TAP	21	336	7
HLD	22	0	7	144
TAP	22	72	6
TAP	22	144	5
TAP	22	192	0
TAP	22	192	7
TAP	22	240	1
TAP	22	240	6
TAP	22	288	2
TAP	22	288	5
TAP	23	0	7
TAP	23	72	6
HLD	23	144	5	192
TAP	23	192	6
TAP	23	264	7
TAP	23	336	0
HLD	24	0	0	144
TAP	24	72	1
TAP	24	144	2
STR	24	192	0
SXL	24	192	0	96	48	2
STR	24	192	7
SXR	24	192	7	96	48	5
TAP	24	288	0
TAP	24	288	7
TAP	25	0	3
TAP	25	72	2
HLD	25	144	1	192
TAP	25	192	2
TAP	25	264	3
TAP	25	336	4
HLD	26	0	4	144
TAP	26	72	5
TAP	26	144	6
TAP	26	192	3
TAP	26	192	4
TAP	26	240	2
TAP	26	240	5
TAP	26	288	1
TAP	26	288	6
TAP	27	0	4
TAP	27	72	5
HLD	27	144	6	192
TAP	27	192	5
TAP	27	264	4
TAP	27	336	3
TAP	28	0	3
TAP	28	0	4
TAP	28	144	0
TAP	28	144	1
TAP	28	192	2
TAP	28	192	7
BRK	28	288	4
BRK	28	288	5
TAP	29	0	1
TAP	29	0	4
TAP	29	48	2
TAP	29	72	3
TAP	29	96	2
TAP	29	144	1
TAP	29	144	4
TAP	29	192	1
TAP	29	216	0
TAP	29	264	1
TAP	29	288	0
TAP	29	336	2
TAP	29	336	7
TAP	30	0	3
TAP	30	0	6
TAP	30	48	5
TAP	30	72	4
TAP	30	96	5
TAP	30	144	3
TAP	30	144	6
TAP	30	192	6
TAP	30	216	7
TAP	30	264	6
TAP	30	288	7
TAP	30	336	0
TAP	30	336	5
TAP	31	0	2
TAP	31	0	3
TAP	31	48	1
TAP	31	72	4
TAP	31	96	1
TAP	31	144	2
TAP	31	144	3
TAP	31	192	0
TAP	31	216	0
TAP	31	264	7
TAP	31	288	7
TAP	31	336	1
TAP	31	336	6
STR	32	0	2
SCL	32	0	2	96	48	7
STR	32	96	3
SCR	32	96	3	96	48	6
STR	32	192	7
SI_	32	192	7	96	48	2
SI_	32	192	7	96	48	4
TAP	33	0	4
TAP	33	48	1
TAP	33	72	2
TAP	33	96	1
TAP	33	144	7
TAP	33	192	3
TAP	33	216	4
TAP	33	264	0
TAP	33	288	7
TAP	33	336	1
TAP	33	336	6
TAP	34	0	3
TAP	34	48	6
TAP	34	72	5
TAP	34	96	6
TAP	34	144	0
TAP	34	192	7
TAP	34	216	0
TAP	34	264	4
TAP	34	288	3
TAP	34	336	2
TAP	34	336	5
TAP	35	0	0
TAP	35	0	1
TAP	35	96	6
TAP	35	96	7
TAP	35	192	1
TAP	35	192	2
TAP	35	264	0
TAP	35	264	7
TAP	35	336	5
TAP	35	336	6
TAP	36	0	3
TAP	36	0	4
STR	36	96	1
SXL	36	96	1	96	48	2
STR	36	96	6
SXR	36	96	6	96	48	5
BRK	36	192	1
BRK	36	192	6
TAP	37	0	0
HLD	37	96	0	192
TAP	37	192	1
TAP	37	240	2
TAP	37	288	3
HLD	37	336	4	192
TAP	38	0	5
TAP	38	48	6
TAP	38	96	7
TAP	38	144	0
STR	38	288	4
SI_	38	288	4	96	48	7
STR	39	0	3
SI_	39	0	3	96	48	0
STR	39	96	4
SI_	39	96	4	96	48	6
STR	39	192	3
SI_	39	192	3	96	48	1
STR	39	288	4
SI_	39	288	4	96	48	0
STR	40	0	3
SI_	40	0	3	96	48	7
STR	40	96	4
SI_	40	96	4	96	48	7
TAP	40	240	0
TAP	40	288	0
HLD	41	0	0	144
TAP	41	48	7
TAP	41	96	6
TAP	41	144	5
HLD	41	192	4	192
TAP	41	240	3
TAP	41	288	2
TAP	41	336	1
STR	42	0	0
SV_	42	0	0	96	96	3
SV_	42	0	0	96	96	5
TAP	42	288	1
TAP	42	288	6
TAP	43	0	3
TAP	43	48	3
TAP	43	96	4
TAP	43	144	4
TAP	43	192	3
TAP	43	240	4
TAP	43	288	3
TAP	43	336	4
TAP	44	0	3
TAP	44	0	4
TAP	44	48	3
TAP	44	48	4
TAP	44	96	3
TAP	44	96	4
TAP	44	144	3
TAP	44	144	4
STR	44	192	1
SI_	44	192	1	96	48	4
STR	44	192	6
SI_	44	192	6	96	48	3
BRK	44	288	1
BRK	44	288	6
HLD	45	0	1	192
TAP	45	144	0
TAP	45	192	0
TAP	45	288	0
TAP	45	288	3
TAP	46	0	2
TAP	46	0	7
TAP	46	72	4
TAP	46	72	7
TAP	46	144	0
TAP	46	144	5
STR	46	192	6
SCL	46	192	6	96	48	3
STR	46	192	7
SCR	46	192	7	96	48	2
TAP	46	240	6
TAP	46	240	7
TAP	46	288	6
TAP	46	288	7
TAP	47	0	0
TAP	47	0	1
TAP	47	72	1
TAP	47	72	2
TAP	47	144	2
TAP	47	144	3
TAP	47	192	0
TAP	47	192	1
TAP	47	264	0
TAP	47	264	7
TAP	47	336	6
TAP	47	336	7
TAP	48	0	0
TAP	48	0	1
TAP	48	72	2
TAP	48	72	7
TAP	48	144	3
TAP	48	144	6
TAP	48	192	2
TAP	48	192	7
TAP	48	264	4
TAP	48	264	5
TAP	48	336	0
TAP	48	336	1
TAP	49	0	3
STR	49	0	6
SCL	49	0	6	96	96	3
TAP	49	96	2
TAP	49	144	1
TAP	49	192	0
TAP	49	288	5
TAP	49	288	6
TAP	50	0	5
TAP	50	0	7
TAP	50	72	0
TAP	50	72	5
TAP	50	144	1
TAP	50	144	5
HLD	50	192	2	96
HLD	50	192	5	96
TAP	50	336	0
STR	51	0	0
SLR	51	0	0	96	96	4
STR	51	96	4
SLR	51	96	4	96	96	0
STR	51	192	0
SI_	51	192	0	96	96	4
STR	51	288	4
SXL	51	288	4	96	192	0
SXR	51	288	4	96	192	0
BRK	52	288	1
BRK	52	288	7
HLD	53	0	7	192
TAP	53	144	0
TAP	53	192	0
TAP	53	288	4
TAP	53	288	7
TAP	54	0	0
TAP	54	0	5
TAP	54	72	0
TAP	54	72	3
TAP	54	144	2
TAP	54	144	7
STR	54	192	0
SCL	54	192	0	96	48	5
STR	54	192	1
SCR	54	192	1	96	48	4
TAP	54	240	0
TAP	54	240	1
TAP	54	288	0
TAP	54	288	1
TAP	55	0	6
TAP	55	0	7
TAP	55	72	5
TAP	55	72	6
TAP	55	144	4
TAP	55	144	5
TAP	55	192	6
TAP	55	192	7
TAP	55	264	0
TAP	55	264	7
TAP	55	336	0
TAP	55	336	1
TAP	56	0	6
TAP	56	0	7
TAP	56	72	0
TAP	56	72	5
TAP	56	144	1
TAP	56	144	4
STR	56	192	6
SI_	56	192	6	96	48	3
STR	56	192	7
SI_	56	192	7	96	48	2
BRK	56	288	6
BRK	56	288	7
TAP	57	96	1
TAP	57	144	0
TAP	57	144	2
TAP	57	192	3
TAP	57	192	7
TAP	57	288	6
TAP	57	336	5
TAP	57	336	7
TAP	58	0	0
TAP	58	0	4
TAP	58	72	3
TAP	58	72	7
TAP	58	144	1
TAP	58	144	5
TAP	58	192	2
TAP	58	192	6
TAP	58	336	6
STR	59	0	6
SCL	59	0	6	96	96	2
STR	59	96	2
SCL	59	96	2	96	96	6
STR	59	192	6
SLL	59	192	6	96	96	2
STR	59	288	2
SLL	59	288	2	96	96	6
STR	60	0	6
SV_	60	0	6	96	48	1
SV_	60	0	6	96	48	3
STR	60	192	2
SV_	60	192	2	96	48	5
SV_	60	192	2	96	48	7
TAP	61	0	1
TAP	61	0	6
TAP	61	48	2
TAP	61	72	3
TAP	61	120	5
TAP	61	144	4
TAP	61	192	0
TAP	61	216	7
TAP	61	240	1
TAP	61	264	6
TAP	61	288	0
TAP	61	312	7
TAP	61	336	1
TAP	61	360	6
TAP	62	0	2
TAP	62	48	2
TAP	62	72	3
TAP	62	120	5
TAP	62	144	4
TAP	62	192	2
TAP	62	216	3
TAP	62	264	5
TAP	62	288	4
TAP	63	0	2
TAP	63	0	5
TAP	63	48	1
TAP	63	72	0
TAP	63	120	6
TAP	63	144	7
TAP	63	192	0
TAP	63	192	5
TAP	63	240	1
TAP	63	240	4
TAP	63	288	2
TAP	63	288	3
TAP	63	336	6
TAP	63	336	7
TAP	64	0	0
TAP	64	0	1
TAP	64	72	4
TAP	64	72	5
TAP	64	144	2
TAP	64	144	3
TAP	64	192	6
TAP	64	192	7
TAP	64	288	0
TAP	64	312	7
TAP	64	336	0
TAP	64	360	7
HLD	65	0	1	96
HLD	65	0	6	96
TAP	65	144	2
TAP	65	144	5
TAP	65	192	0
TAP	65	192	7
TAP	65	288	1
TAP	65	288	2
TAP	66	0	2
TAP	66	0	3
TAP	66	72	6
TAP	66	72	7
TAP	66	144	5
TAP	66	144	6
STR	66	192	0
SI_	66	192	0	96	48	2
STR	66	192	7
SI_	66	192	7	96	48	3
TAP	66	240	0
TAP	66	240	7
TAP	66	288	0
TAP	66	288	7
TAP	67	0	1
TAP	67	0	4
TAP	67	48	2
TAP	67	48	3
TAP	67	72	2
TAP	67	72	3
TAP	67	144	1
TAP	67	144	4
TAP	67	192	3
TAP	67	192	6
TAP	67	240	4
TAP	67	240	5
TAP	67	264	4
TAP	67	264	5
TAP	67	336	3
TAP	67	336	6
TAP	68	0	2
TAP	68	0	5
TAP	68	48	0
TAP	68	48	7
TAP	68	72	0
TAP	68	72	7
TAP	68	144	2
TAP	68	144	5
TAP	68	192	4
TAP	68	192	6
TAP	68	264	0
TAP	68	264	2
TAP	68	336	1
TAP	68	336	5
HLD	69	0	3	96
HLD	69	0	7	96
TAP	69	144	0
TAP	69	144	7
TAP	69	192	1
TAP	69	192	6
TAP	69	288	5
TAP	69	288	6
TAP	70	0	4
TAP	70	0	5
TAP	70	72	0
TAP	70	72	1
TAP	70	144	1
TAP	70	144	2
HLD	70	192	0	96
HLD	70	192	7	96
TAP	70	336	4
STR	71	0	4
SLL	71	0	4	96	96	0
STR	71	96	0
SLL	71	96	0	96	96	4
STR	71	192	4
SI_	71	192	4	96	96	0
STR	71	288	0
SXL	71	288	0	96	192	4
SXR	71	288	0	96	192	4
BRK	72	288	0
HLD	73	0	1	96
HLD	73	0	7	96
TAP	73	144	4
TAP	73	192	3
TAP	73	192	5
TAP	73	288	2
TAP	73	288	7
TAP	74	0	0
TAP	74	0	1
TAP	74	72	6
TAP	74	72	7
TAP	74	144	0
TAP	74	144	5
STR	74	192	3
SI_	74	192	3	96	48	0
STR	74	192	4
SI_	74	192	4	96	48	7
TAP	74	240	3
TAP	74	240	4
TAP	74	288	3
TAP	74	288	4
TAP	75	0	0
STR	75	48	1
SI_	75	48	1	96	48	4
TAP	75	72	1
TAP	75	144	7
TAP	75	192	7
STR	75	240	6
SI_	75	240	6	96	48	3
TAP	75	264	6
TAP	75	336	0
TAP	76	0	1
STR	76	48	2
SI_	76	48	2	96	48	7
TAP	76	72	2
TAP	76	144	6
BRK	76	192	5
BRK	76	264	0
BRK	76	336	3
BRK	76	336	4
TAP	77	96	0
TAP	77	144	2
TAP	77	192	6
TAP	77	192	7
TAP	77	288	7
TAP	77	336	5
TAP	78	0	0
TAP	78	0	1
TAP	78	72	4
TAP	78	72	5
TAP	78	144	6
TAP	78	144	7
TAP	78	192	2
TAP	78	192	3
TAP	78	336	1
STR	79	0	1
SCR	79	0	1	96	96	5
STR	79	96	5
SCR	79	96	5	96	96	1
STR	79	192	1
SLR	79	192	1	96	96	5
STR	79	288	5
SLR	79	288	5	96	96	1
STR	80	0	1
SXL	80	0	1	96	192	5
SXR	80	0	1	96	192	5
TAP	80	336	6
STR	81	0	6
SCL	81	0	6	96	96	2
STR	81	96	2
SCL	81	96	2	96	96	6
STR	81	192	6
SLL	81	192	6	96	96	2
STR	81	288	2
SLL	81	288	2	96	96	6
STR	82	0	6
SXL	82	0	6	96	192	2
SXR	82	0	6	96	192	2
TAP	82	336	3
STR	83	0	3
SUL	83	0	3	96	96	7
STR	83	96	7
SUL	83	96	7	96	96	3
STR	83	192	3
SCL	83	192	3	96	96	7
STR	83	288	7
SCL	83	288	7	96	96	3
STR	84	0	3
SI_	84	0	3	96	48	7
STR	84	192	7
SI_	84	192	7	96	48	2
SI_	84	192	7	96	48	4
TAP	85	0	1
TAP	85	0	6
TAP	85	48	5
TAP	85	72	4
TAP	85	120	2
TAP	85	144	3
TAP	85	192	7
TAP	85	216	0
TAP	85	240	6
TAP	85	264	1
TAP	85	288	7
TAP	85	312	0
TAP	85	336	6
TAP	85	360	1
TAP	86	0	5
TAP	86	48	5
TAP	86	72	4
TAP	86	120	2
TAP	86	144	3
TAP	86	192	5
TAP	86	216	4
TAP	86	264	2
TAP	86	288	3
TAP	87	0	2
TAP	87	0	5
TAP	87	48	6
TAP	87	72	7
TAP	87	120	1
TAP	87	144	0
TAP	87	192	2
TAP	87	192	7
TAP	87	240	3
TAP	87	240	6
TAP	87	288	4
TAP	87	288	5
TAP	87	336	0
TAP	87	336	1
TAP	88	0	6
TAP	88	0	7
TAP	88	72	2
TAP	88	72	3
TAP	88	144	4
TAP	88	144	5
BRK	88	192	0
BRK	88	192	1
TAP	88	288	7
TAP	88	312	0
TAP	88	336	7
TAP	88	360	0
TAP	89	0	6
HLD	89	48	6	96
HLD	89	144	5	96
TAP	89	240	6
TAP	89	264	5
TAP	89	288	4
TAP	90	0	1
HLD	90	48	1	96
HLD	90	144	2	96
TAP	90	240	1
TAP	90	264	2
TAP	90	288	3
TAP	91	0	5
HLD	91	48	5	96
TAP	91	144	4
TAP	91	240	0
TAP	91	240	1
TAP	91	264	2
TAP	91	264	7
TAP	91	288	3
TAP	91	288	6
TAP	92	0	4
TAP	92	0	5
HLD	92	48	4	96
HLD	92	48	5	96
TAP	92	240	2
TAP	92	240	3
TAP	92	336	0
TAP	92	360	7

T_REC_TAP	577
T_REC_BRK	19
T_REC_XTP	0
T_REC_HLD	41
T_REC_XHO	0
T_REC_STR	79
T_REC_BST	0
T_REC_XST	0
T_REC_TTP	0
T_REC_THO	0
T_REC_SLD	91
T_REC_ALL	807
T_NUM_TAP	656
T_NUM_BRK	19
T_NUM_HLD	41
T_NUM_SLD	91
T_NUM_ALL	807
T_JUDGE_TAP	675
T_JUDGE_HLD	111
T_JUDGE_SLD	91
T_JUDGE_ALL	877
TTM_EACHPAIRS	197
TTM_SCR_TAP	328000
TTM_SCR_BRK	49400
TTM_SCR_HLD	41000
TTM_SCR_SLD	136500
TTM_SCR_ALL	554900
TTM_SCR_S	536450
TTM_SCR_SS	553000
TTM_RAT_ACV	10034

