VERSION	0.00.00	1.03.00
FES_MODE	0
BPM_DEF	162.000	162.000	162.000	162.000
MET_DEF	4	4
RESOLUTION	384
CLK_DEF	384
COMPATIBLE_CODE	MA2

BPM	0	0	162.000
MET	0	0	4	4

TAP	1	0	4
TAP	1	96	4
TAP	1	192	3
TAP	1	288	3
TAP	2	0	4
TAP	2	48	4
TAP	2	96	3
TAP	2	144	3
HLD	3	0	0	96
HLD	3	0	7	96
HLD	3	144	0	96
HLD	3	144	7	96
TAP	3	288	0
TAP	3	288	7
HLD	4	0	1	96
HLD	4	0	6	96
TAP	4	144	1
TAP	4	144	6
TAP	5	0	3
TAP	5	96	3
TAP	5	192	4
TAP	5	288	4
HLD	6	0	3	144
HLD	6	0	4	144
TAP	7	0	0
TAP	7	0	7
TAP	7	96	1
TAP	7	96	6
TAP	7	192	2
TAP	7	192	5
TAP	7	288	3
TAP	7	288	4
TAP	8	0	1
TAP	8	0	6
TAP	8	192	2
TAP	8	192	5
BRK	9	0	0
BRK	9	0	7
TAP	9	96	2
TAP	9	96	3
TAP	9	192	5
TAP	9	240	5
TAP	9	288	4
TAP	10	0	2
TAP	10	48	2
TAP	10	96	3
TAP	10	192	4
TAP	10	192	5
TAP	10	288	3
TAP	10	288	6
TAP	11	0	2
TAP	11	96	2
TAP	11	96	3
TAP	11	192	5
TAP	11	240	5
TAP	11	288	4
TAP	12	0	2
TAP	12	48	2
TAP	12	96	3
TAP	12	192	6
TAP	12	192	7
TAP	12	288	0
TAP	12	288	5
TAP	13	0	5
TAP	13	96	4
TAP	13	96	5
TAP	13	192	2
TAP	13	240	2
TAP	13	288	3
TAP	14	0	5
TAP	14	48	5
TAP	14	96	4
TAP	14	192	2
TAP	14	192	3
TAP	14	288	1
TAP	14	288	4
TAP	15	0	5
TAP	15	96	4
TAP	15	96	5
TAP	15	192	2
TAP	15	240	2
TAP	15	288	3
STR	16	0	0
SI_	16	0	0	96	48	4
STR	16	0	7
SI_	16	0	7	96	48	3
BRK	16	192	1
BRK	16	192	6
TAP	17	0	3
HLD	17	48	3	528
TAP	17	288	4
TAP	18	0	4
HLD	18	48	4	528
TAP	18	288	2
TAP	19	0	2
HLD	19	48	2	432
TAP	19	288	5
HLD	20	0	5	96
TAP	20	192	1
TAP	20	192	6
HLD	21	0	5	96
TAP	21	96	4
HLD	21	192	2	96
TAP	21	288	3
HLD	22	0	5	96
TAP	22	96	4
TAP	22	192	3
TAP	22	192	6
TAP	22	288	2
TAP	22	288	3
HLD	23	0	5	96
TAP	23	96	4
HLD	23	192	1	96
TAP	23	288	0
HLD	24	0	2	96
TAP	24	96	3
TAP	24	192	6
TAP	24	192	7
TAP	24	288	0
TAP	24	288	5
HLD	25	0	2	96
TAP	25	96	3
HLD	25	192	5	96
TAP	25	288	4
HLD	26	0	2	96
TAP	26	96	3
TAP	26	192	1
TAP	26	192	4
TAP	26	288	4
TAP	26	288	5
HLD	27	0	2	96
TAP	27	96	3
HLD	27	192	6	96
TAP	27	288	7
TAP	28	0	2
TAP	28	0	5
TAP	28	144	3
TAP	28	144	4
TAP	28	192	3
TAP	28	192	4
TAP	28	288	1
TAP	28	288	6
HLD	29	0	5	192
TAP	29	96	4
HLD	29	192	2	192
TAP	29	288	3
HLD	30	0	6	192
TAP	30	96	5
HLD	30	192	1	192
TAP	30	288	2
HLD	31	0	6	192
TAP	31	96	7
HLD	31	192	1	192
TAP	31	288	0
STR	32	0	7
SI_	32	0	7	96	48	3
BRK	32	192	0
TAP	32	288	3
TAP	32	288	4
HLD	33	0	2	192
TAP	33	96	3
HLD	33	192	5	192
TAP	33	288	4
HLD	34	0	1	192
TAP	34	96	2
HLD	34	192	6	192
TAP	34	288	5
TAP	35	0	1
TAP	35	96	3
TAP	35	96	4
STR	35	192	0
SCR	35	192	0	96	48	3
STR	35	192	7
SCL	35	192	7	96	48	4
TAP	36	0	0
TAP	36	0	7
BRK	36	192	1
BRK	36	192	6
TAP	37	0	3
TAP	37	96	3
TAP	37	192	4
TAP	37	240	4
TAP	37	288	4
TAP	38	0	3
TAP	38	48	3
TAP	38	96	4
TAP	38	144	4
HLD	39	0	0	96
HLD	39	0	6	96
HLD	39	144	0	96
HLD	39	144	6	96
TAP	39	288	0
TAP	39	288	6
HLD	40	0	1	96
HLD	40	0	7	96
TAP	40	144	1
TAP	40	144	7
TAP	41	0	4
TAP	41	48	4
TAP	41	96	3
TAP	41	144	3
TAP	41	192	4
TAP	41	240	4
TAP	41	288	3
TAP	41	336	3
TAP	42	0	4
TAP	42	48	4
TAP	42	96	3
TAP	42	144	3
TAP	42	192	4
TAP	42	240	4
TAP	42	288	2
TAP	42	288	5
HLD	43	0	6	96
HLD	43	96	7	96
HLD	43	192	0	96
STR	43	288	1
SCR	43	288	1	96	144	6
BRK	44	192	0
BRK	44	192	7
STR	45	0	0
SCL	45	0	0	96	48	5
STR	45	0	1
SCR	45	0	1	96	48	4
TAP	45	192	2
TAP	45	192	7
TAP	45	288	3
TAP	45	288	4
STR	46	0	0
SI_	46	0	0	96	48	4
STR	46	0	7
SI_	46	0	7	96	48	3
TAP	46	192	2
TAP	46	192	5
HLD	47	0	6	72
HLD	47	72	5	72
TAP	47	144	4
TAP	47	192	4
TAP	47	288	0
TAP	47	288	5
HLD	48	0	1	72
HLD	48	72	2	72
TAP	48	144	3
TAP	48	192	3
TAP	48	288	2
TAP	48	288	7
STR	49	0	6
SCL	49	0	6	96	48	3
STR	49	0	7
SCR	49	0	7	96	48	2
TAP	49	192	0
TAP	49	192	5
TAP	49	288	1
TAP	49	288	6
STR	50	0	3
SI_	50	0	3	96	48	0
STR	50	0	4
SI_	50	0	4	96	48	7
TAP	50	192	1
TAP	50	192	6
TAP	50	336	2
HLD	51	0	2	96
HLD	51	96	3	96
HLD	51	192	4	96
STR	51	288	5
SCR	51	288	5	96	144	2
TAP	52	192	0
TAP	52	192	7
TAP	52	288	3
TAP	52	288	4
STR	53	0	0
SCL	53	0	0	96	48	5
STR	53	0	1
SCR	53	0	1	96	48	4
TAP	53	192	2
TAP	53	192	7
TAP	53	288	3
TAP	53	288	4
STR	54	0	1
SI_	54	0	1	96	48	5
STR	54	0	6
SI_	54	0	6	96	48	2
TAP	54	192	0
TAP	54	192	7
HLD	55	0	1	72
HLD	55	72	2	72
TAP	55	144	3
TAP	55	192	3
TAP	55	288	2
TAP	55	288	7
HLD	56	0	6	72
HLD	56	72	5	72
TAP	56	144	4
TAP	56	192	4
BRK	56	288	0
BRK	56	288	5
TAP	57	0	3
TAP	57	0	4
TAP	57	96	6
TAP	57	96	7
TAP	57	144	6
TAP	57	144	7
TAP	57	192	0
TAP	57	192	5
STR	57	288	4
SCL	57	288	4	96	96	1
STR	57	288	5
SCR	57	288	5	96	96	0
TAP	58	192	2
TAP	58	192	7
TAP	58	336	1
HLD	59	0	1	96
HLD	59	96	0	96
HLD	59	192	7	96
TAP	59	288	6
STR	60	0	0
SI_	60	0	0	96	48	4
STR	60	192	7
SI_	60	192	7	96	48	3
BRK	61	0	1
BRK	61	0	6
TAP	61	96	3
TAP	61	96	4
HLD	61	192	2	96
TAP	61	288	3
HLD	62	0	6	96
HLD	62	96	7	96
TAP	62	192	0
TAP	62	288	2
TAP	62	288	7
HLD	63	0	5	96
TAP	63	96	4
HLD	63	192	1	96
TAP	63	288	0
STR	64	0	0
SCL	64	0	0	96	96	5
STR	64	0	7
SCR	64	0	7	96	96	2
BRK	64	288	1
BRK	64	288	6
STR	65	0	6
SCL	65	0	6	96	48	3
STR	65	0	7
SCR	65	0	7	96	48	2
TAP	65	192	6
TAP	65	192	7
TAP	65	288	3
TAP	65	288	4
STR	66	0	0
SI_	66	0	0	96	48	5
STR	66	0	7
SI_	66	0	7	96	48	2
TAP	66	192	3
TAP	66	192	4
TAP	66	288	1
TAP	66	288	6
HLD	67	0	6	72
HLD	67	72	5	72
TAP	67	144	4
HLD	67	192	1	72
HLD	67	264	2	72
TAP	67	336	3
HLD	68	0	6	72
HLD	68	72	5	72
TAP	68	144	4
TAP	68	192	4
TAP	68	288	0
TAP	68	288	5
STR	69	0	0
SCL	69	0	0	96	48	5
STR	69	0	1
SCR	69	0	1	96	48	4
TAP	69	192	0
TAP	69	192	1
TAP	69	288	3
HLD	69	288	4	96
STR	70	0	3
SI_	70	0	3	96	48	0
TAP	70	192	1
TAP	70	192	6
TAP	70	336	5
HLD	71	0	5	96
HLD	71	96	4	96
HLD	71	192	3	96
TAP	71	288	2
STR	72	0	1
SI_	72	0	1	96	48	4
STR	72	0	6
SI_	72	0	6	96	48	3
TAP	72	192	1
TAP	72	192	6
TAP	72	288	3
TAP	72	288	4
STR	73	0	6
SCL	73	0	6	96	48	3
STR	73	0	7
SCR	73	0	7	96	48	2
TAP	73	192	6
TAP	73	192	7
TAP	73	288	2
TAP	73	288	5
STR	74	0	3
SCL	74	0	3	96	48	0
STR	74	0	4
SCR	74	0	4	96	48	7
TAP	74	192	1
TAP	74	192	6
TAP	74	288	3
TAP	74	288	4
HLD	75	0	1	72
HLD	75	72	2	72
TAP	75	144	3
HLD	75	192	6	72
HLD	75	264	5	72
TAP	75	336	4
HLD	76	0	0	72
HLD	76	72	1	72
TAP	76	144	2
HLD	76	192	7	72
HLD	76	264	6	72
TAP	76	336	5
TAP	77	96	0
TAP	77	96	1
TAP	77	144	0
TAP	77	144	1
TAP	77	192	2
TAP	77	192	7
STR	77	288	2
SCL	77	288	2	96	96	7
STR	77	288	3
SCR	77	288	3	96	96	6
TAP	78	192	0
TAP	78	192	5
TAP	78	336	6
HLD	79	0	6	96
HLD	79	96	7	96
HLD	79	192	0	96
STR	79	288	1
SLL	79	288	1	96	192	5
SLR	79	288	1	96	192	5
TAP	80	336	1
HLD	81	0	1	96
HLD	81	96	0	96
HLD	81	192	7	96
STR	81	288	6
SLL	81	288	6	96	192	2
SLR	81	288	6	96	192	2
TAP	82	336	6
HLD	83	0	6	96
HLD	83	96	7	96
HLD	83	192	0	96
TAP	83	288	1
STR	84	0	7
SI_	84	0	7	96	48	3
STR	84	192	0
SI_	84	192	0	96	48	4
BRK	85	0	1
BRK	85	0	6
TAP	85	96	3
TAP	85	96	4
TAP	85	192	6
TAP	85	240	6
TAP	85	288	7
TAP	86	0	1
TAP	86	48	1
TAP	86	96	0
TAP	86	192	4
TAP	86	192	5
TAP	86	288	2
TAP	86	288	7
TAP	87	0	5
TAP	87	48	5
TAP	87	96	4
TAP	87	192	2
TAP	87	240	2
TAP	87	288	3
STR	88	0	6
SCL	88	0	6	96	48	3
STR	88	0	7
SCR	88	0	7	96	48	2
TAP	88	192	0
TAP	88	192	5
TAP	89	0	4
HLD	89	48	4	528
TAP	89	288	3
TAP	90	0	3
HLD	90	48	3	528
TAP	90	288	5
TAP	91	0	5
HLD	91	48	5	528
TAP	91	288	2
TAP	92	0	2
HLD	92	48	2	144
TAP	92	288	3
TAP	92	288	4

T_REC_TAP	292
T_REC_BRK	17
T_REC_XTP	0
T_REC_HLD	92
T_REC_XHO	0
T_REC_STR	46
T_REC_BST	0
T_REC_XST	0
T_REC_TTP	0
T_REC_THO	0
T_REC_SLD	48
T_REC_ALL	495
T_NUM_TAP	338
T_NUM_BRK	17
T_NUM_HLD	92
T_NUM_SLD	48
T_NUM_ALL	495
T_JUDGE_TAP	355
T_JUDGE_HLD	259
T_JUDGE_SLD	48
T_JUDGE_ALL	662
TTM_EACHPAIRS	112
TTM_SCR_TAP	169000
TTM_SCR_BRK	44200
TTM_SCR_HLD	92000
TTM_SCR_SLD	72000
TTM_SCR_ALL	377200
TTM_SCR_S	364250
TTM_SCR_SS	375500
TTM_RAT_ACV	10045

