VERSION	0.00.00	1.03.00
FES_MODE	0
BPM_DEF	162.000	162.000	162.000	162.000
MET_DEF	4	4
RESOLUTION	384
CLK_DEF	384
COMPATIBLE_CODE	MA2

BPM	0	0	162.000
MET	0	0	4	4

TAP	9	0	2
TAP	9	96	3
TAP	9	192	4
TAP	9	288	5
TAP	10	0	5
TAP	10	96	4
TAP	10	192	3
TAP	10	288	2
TAP	11	0	1
TAP	11	96	1
TAP	11	192	1
TAP	11	288	0
TAP	11	288	7
TAP	12	0	6
TAP	12	96	6
TAP	12	192	0
TAP	12	192	7
TAP	13	0	1
TAP	13	96	0
TAP	13	192	7
TAP	13	288	6
TAP	14	0	6
TAP	14	96	7
TAP	14	192	0
TAP	14	288	1
TAP	15	0	2
TAP	15	96	2
TAP	15	192	2
TAP	15	288	3
TAP	15	288	4
TAP	16	0	2
TAP	16	0	5
TAP	16	96	1
TAP	16	96	6
BRK	16	192	0
BRK	16	192	7
STR	17	0	0
SCR	17	0	0	96	192	3
STR	18	0	7
SCL	18	0	7	96	192	4
STR	19	0	3
SI_	19	0	3	96	192	0
STR	19	0	4
SI_	19	0	4	96	192	7
TAP	20	0	0
TAP	20	0	7
TAP	20	192	3
TAP	20	192	4
TAP	21	0	0
TAP	21	0	1
TAP	21	192	6
TAP	21	192	7
TAP	22	0	2
TAP	22	96	3
TAP	22	192	4
TAP	22	192	5
TAP	23	0	6
TAP	23	0	7
TAP	23	192	0
TAP	23	192	1
TAP	24	0	5
TAP	24	96	4
TAP	24	192	2
TAP	24	192	3
TAP	24	288	0
TAP	24	288	1
TAP	25	0	6
TAP	25	0	7
TAP	25	192	3
TAP	25	192	4
TAP	26	0	1
TAP	26	96	0
TAP	26	192	6
TAP	26	192	7
TAP	27	0	0
TAP	27	0	1
TAP	27	192	3
TAP	27	192	4
TAP	27	288	2
TAP	27	288	5
TAP	28	0	1
TAP	28	0	6
TAP	28	192	0
TAP	28	192	7
TAP	28	288	1
TAP	28	288	6
TAP	29	0	2
TAP	29	96	1
TAP	29	192	0
TAP	29	288	6
TAP	29	288	7
TAP	30	0	5
TAP	30	96	6
TAP	30	192	7
TAP	30	288	0
TAP	30	288	1
TAP	31	0	2
TAP	31	96	3
TAP	31	192	4
TAP	31	288	2
TAP	31	288	5
TAP	32	0	6
TAP	32	96	3
TAP	32	96	4
TAP	32	192	1
TAP	32	288	3
TAP	32	288	4
TAP	33	0	5
TAP	33	96	6
TAP	33	192	7
TAP	33	288	0
TAP	33	288	1
TAP	34	0	2
TAP	34	96	1
TAP	34	192	0
TAP	34	288	6
TAP	34	288	7
TAP	35	0	5
TAP	35	96	4
TAP	35	192	3
STR	35	288	2
SCL	35	288	2	96	96	0
STR	35	288	5
SCR	35	288	5	96	96	7
TAP	36	192	0
TAP	36	192	7
HLD	37	0	2	192
TAP	37	192	3
HLD	38	0	5	192
TAP	38	192	4
HLD	39	0	1	192
TAP	39	192	0
TAP	39	288	0
HLD	40	0	6	192
TAP	40	192	7
TAP	40	288	7
HLD	41	0	1	192
TAP	41	192	2
HLD	42	0	6	192
TAP	42	192	5
TAP	43	0	4
TAP	43	96	3
TAP	43	192	2
TAP	43	288	1
HLD	44	0	0	288
HLD	44	192	7	96
TAP	45	0	6
TAP	45	96	6
TAP	45	96	7
TAP	45	192	5
TAP	45	288	4
TAP	45	288	5
TAP	46	0	6
TAP	46	96	7
TAP	46	192	0
TAP	46	192	5
TAP	47	0	1
TAP	47	96	2
TAP	47	192	3
TAP	47	288	4
TAP	47	288	5
TAP	48	0	6
TAP	48	96	5
TAP	48	192	4
TAP	48	288	2
TAP	48	288	3
TAP	49	0	1
TAP	49	96	0
TAP	49	96	1
TAP	49	192	2
TAP	49	288	2
TAP	49	288	3
TAP	50	0	1
TAP	50	96	0
TAP	50	192	2
TAP	50	192	7
TAP	51	0	6
TAP	51	96	5
TAP	51	192	4
STR	51	288	2
SI_	51	288	2	96	96	0
STR	51	288	3
SI_	51	288	3	96	96	6
BRK	52	192	7
TAP	53	0	1
TAP	53	96	0
TAP	53	96	1
TAP	53	192	2
TAP	53	288	2
TAP	53	288	3
TAP	54	0	1
TAP	54	96	0
TAP	54	192	2
TAP	54	192	7
TAP	55	0	6
TAP	55	96	5
TAP	55	192	4
TAP	55	288	2
TAP	55	288	3
TAP	56	0	1
TAP	56	96	2
TAP	56	192	3
TAP	56	288	4
TAP	56	288	5
TAP	57	96	0
TAP	57	96	1
TAP	57	192	3
TAP	57	192	5
TAP	58	0	6
TAP	58	96	7
TAP	58	192	0
TAP	58	192	5
TAP	59	0	1
TAP	59	96	2
TAP	59	192	3
STR	59	288	4
SI_	59	288	4	96	96	1
STR	59	288	5
SI_	59	288	5	96	96	7
HLD	60	192	0	192
BRK	61	0	7
TAP	61	96	0
TAP	61	192	1
TAP	61	288	2
TAP	62	0	0
TAP	62	96	7
TAP	62	192	6
TAP	62	288	5
TAP	63	0	6
TAP	63	96	6
TAP	63	192	6
TAP	63	192	7
TAP	63	288	0
TAP	63	288	5
TAP	64	0	1
TAP	64	96	0
TAP	64	192	2
TAP	64	192	7
TAP	65	0	1
TAP	65	96	0
TAP	65	96	1
TAP	65	192	2
TAP	65	288	2
TAP	65	288	3
TAP	66	0	1
TAP	66	96	0
TAP	66	192	2
TAP	66	192	7
TAP	67	0	6
TAP	67	96	5
TAP	67	192	4
TAP	67	288	2
TAP	67	288	3
TAP	68	0	1
TAP	68	96	2
TAP	68	192	3
TAP	68	288	4
TAP	68	288	5
TAP	69	0	6
TAP	69	96	6
TAP	69	96	7
TAP	69	192	5
TAP	69	288	4
TAP	69	288	5
TAP	70	0	6
TAP	70	96	7
TAP	70	192	0
TAP	70	192	5
TAP	71	0	1
TAP	71	96	2
TAP	71	192	3
STR	71	288	4
SI_	71	288	4	96	96	1
STR	71	288	5
SI_	71	288	5	96	96	7
BRK	72	192	0
TAP	73	0	6
TAP	73	96	6
TAP	73	96	7
TAP	73	192	5
TAP	73	288	4
TAP	73	288	5
TAP	74	0	6
TAP	74	96	7
TAP	74	192	0
TAP	74	192	5
TAP	75	0	1
TAP	75	96	2
TAP	75	192	3
TAP	75	288	4
TAP	75	288	5
TAP	76	0	6
TAP	76	96	5
TAP	76	192	4
TAP	76	288	2
TAP	76	288	3
TAP	77	96	6
TAP	77	96	7
TAP	77	192	2
TAP	77	192	4
TAP	78	0	1
TAP	78	96	0
TAP	78	192	2
TAP	78	192	7
TAP	79	0	6
TAP	79	96	5
TAP	79	192	4
STR	79	288	2
SI_	79	288	2	96	96	0
STR	79	288	3
SI_	79	288	3	96	96	6
BRK	80	192	7
TAP	81	0	1
TAP	81	96	2
TAP	81	192	3
STR	81	288	4
SI_	81	288	4	96	96	1
STR	81	288	5
SI_	81	288	5	96	96	7
BRK	82	192	0
TAP	83	0	3
TAP	83	0	4
TAP	83	96	2
TAP	83	96	5
TAP	83	192	1
TAP	83	192	6
STR	83	288	0
SI_	83	288	0	96	96	2
STR	83	288	7
SI_	83	288	7	96	96	5
HLD	84	192	3	96
HLD	84	192	4	96
BRK	85	0	1
BRK	85	0	6
TAP	85	96	2
TAP	85	192	3
TAP	85	288	4
TAP	85	288	5
TAP	86	0	6
TAP	86	96	5
TAP	86	192	4
TAP	86	288	2
TAP	86	288	3
TAP	87	0	1
TAP	87	96	0
TAP	87	192	7
TAP	87	288	1
TAP	87	288	6
TAP	88	0	2
TAP	88	0	5
TAP	88	96	3
TAP	88	96	4
TAP	88	192	1
TAP	88	192	6
HLD	89	0	1	384
HLD	90	0	0	384
HLD	91	0	7	384
HLD	92	0	6	336

T_REC_TAP	298
T_REC_BRK	9
T_REC_XTP	0
T_REC_HLD	15
T_REC_XHO	0
T_REC_STR	18
T_REC_BST	0
T_REC_XST	0
T_REC_TTP	0
T_REC_THO	0
T_REC_SLD	18
T_REC_ALL	358
T_NUM_TAP	316
T_NUM_BRK	9
T_NUM_HLD	15
T_NUM_SLD	18
T_NUM_ALL	358
T_JUDGE_TAP	325
T_JUDGE_HLD	71
T_JUDGE_SLD	18
T_JUDGE_ALL	414
TTM_EACHPAIRS	86
TTM_SCR_TAP	158000
TTM_SCR_BRK	23400
TTM_SCR_HLD	15000
TTM_SCR_SLD	27000
TTM_SCR_ALL	223400
TTM_SCR_S	215850
TTM_SCR_SS	222500
TTM_RAT_ACV	10040

