VERSION	0.00.00	1.03.00
FES_MODE	0
BPM_DEF	162.000	162.000	162.000	162.000
MET_DEF	4	4
RESOLUTION	384
CLK_DEF	384
COMPATIBLE_CODE	MA2

BPM	0	0	162.000
MET	0	0	4	4

TAP	9	0	0
TAP	9	192	0
TAP	10	0	1
TAP	10	192	1
TAP	11	0	2
TAP	11	192	2
TAP	12	0	3
TAP	12	192	3
TAP	13	0	4
TAP	13	192	4
TAP	14	0	5
TAP	14	192	5
TAP	15	0	6
TAP	15	192	6
TAP	16	0	7
TAP	16	192	7
STR	17	0	0
SI_	17	0	0	96	288	3
STR	19	0	4
SI_	19	0	4	96	288	7
TAP	21	0	0
TAP	21	192	0
TAP	22	0	0
TAP	22	0	1
TAP	23	0	2
TAP	23	192	2
TAP	24	0	2
TAP	24	0	3
TAP	25	0	4
TAP	25	192	4
TAP	26	0	4
TAP	26	0	5
TAP	27	0	6
TAP	27	192	6
TAP	28	0	6
TAP	28	192	0
TAP	28	192	7
TAP	29	0	7
TAP	29	192	7
TAP	30	0	6
TAP	30	0	7
TAP	31	0	5
TAP	31	192	5
TAP	32	0	4
TAP	32	0	5
TAP	33	0	3
TAP	33	192	3
TAP	34	0	2
TAP	34	0	3
TAP	35	0	1
TAP	35	192	1
TAP	36	0	1
TAP	36	192	0
TAP	36	192	7
TAP	37	0	0
TAP	37	192	1
TAP	38	0	2
TAP	38	192	3
STR	39	0	4
SI_	39	0	4	96	288	7
TAP	41	0	7
TAP	41	192	6
TAP	42	0	5
TAP	42	192	4
HLD	43	0	3	192
HLD	44	0	4	192
TAP	45	0	3
TAP	45	192	3
TAP	46	0	2
TAP	46	192	2
TAP	47	0	1
TAP	47	192	1
TAP	48	0	0
TAP	48	96	0
TAP	48	192	0
TAP	49	0	7
TAP	49	192	7
TAP	50	0	6
TAP	50	192	6
TAP	51	0	5
TAP	51	192	5
HLD	52	0	3	192
HLD	52	0	4	192
TAP	53	0	4
TAP	53	192	5
TAP	54	0	6
TAP	54	192	7
TAP	55	0	0
TAP	55	192	1
TAP	56	0	2
BRK	56	192	3
BRK	56	192	4
TAP	58	0	5
TAP	58	192	5
TAP	59	0	6
TAP	59	192	6
TAP	60	0	0
TAP	60	0	7
TAP	60	192	0
TAP	60	192	7
HLD	61	0	0	192
HLD	62	0	1	192
HLD	63	0	2	192
HLD	64	0	3	192
TAP	65	0	4
TAP	65	192	4
TAP	66	0	5
TAP	66	192	5
TAP	67	0	6
TAP	67	192	6
TAP	68	0	7
TAP	68	96	7
TAP	68	192	7
TAP	69	0	0
TAP	69	192	0
TAP	70	0	1
TAP	70	192	1
TAP	71	0	2
TAP	71	192	2
HLD	72	0	3	192
HLD	72	0	4	192
TAP	73	0	3
TAP	73	192	2
TAP	74	0	1
TAP	74	192	0
TAP	75	0	7
TAP	75	192	6
TAP	76	0	5
BRK	76	192	3
BRK	76	192	4
TAP	78	0	2
TAP	78	192	2
TAP	79	0	1
TAP	79	192	1
TAP	80	0	0
TAP	80	0	7
TAP	80	192	0
TAP	80	192	7
TAP	81	0	6
TAP	81	192	5
TAP	82	0	3
TAP	82	0	4
TAP	82	192	3
TAP	82	192	4
TAP	83	0	2
TAP	83	192	1
TAP	84	0	0
TAP	84	0	7
TAP	84	192	0
TAP	84	192	7
BRK	85	0	7
TAP	85	192	6
TAP	86	0	5
TAP	86	192	4
TAP	87	0	3
TAP	87	192	2
TAP	88	0	1
TAP	88	192	0
STR	89	0	7
SI_	89	0	7	96	288	4
STR	91	0	3
SI_	91	0	3	96	288	0

T_REC_TAP	137
T_REC_BRK	5
T_REC_XTP	0
T_REC_HLD	10
T_REC_XHO	0
T_REC_STR	5
T_REC_BST	0
T_REC_XST	0
T_REC_TTP	0
T_REC_THO	0
T_REC_SLD	5
T_REC_ALL	162
T_NUM_TAP	142
T_NUM_BRK	5
T_NUM_HLD	10
T_NUM_SLD	5
T_NUM_ALL	162
T_JUDGE_TAP	147
T_JUDGE_HLD	40
T_JUDGE_SLD	5
T_JUDGE_ALL	192
TTM_EACHPAIRS	20
TTM_SCR_TAP	71000
TTM_SCR_BRK	13000
TTM_SCR_HLD	10000
TTM_SCR_SLD	7500
TTM_SCR_ALL	101500
TTM_SCR_S	98000
TTM_SCR_SS	101000
TTM_RAT_ACV	10049

