VERSION	0.00.00	1.03.00
FES_MODE	0
BPM_DEF	240.000	240.000	240.000	240.000
MET_DEF	4	4
RESOLUTION	384
CLK_DEF	384
COMPATIBLE_CODE	MA2

BPM	0	0	240.000
MET	0	0	4	4

TAP	2	0	7
TAP	2	96	1
TAP	2	144	0
TAP	2	192	1
TAP	2	240	0
TAP	2	288	1
TAP	2	336	0
TAP	3	0	1
TAP	3	96	6
TAP	3	144	7
TAP	3	192	6
TAP	3	240	7
TAP	3	288	6
TAP	3	336	7
TAP	4	0	6
TAP	4	96	1
TAP	4	144	6
TAP	4	192	1
TAP	4	240	6
TAP	4	288	1
TAP	4	336	6
TAP	5	0	1
TAP	5	96	7
TAP	5	144	0
TAP	5	192	7
TAP	5	240	0
TAP	5	288	7
TAP	5	336	0
TAP	6	0	7
TAP	6	96	2
TAP	6	144	3
TAP	6	192	2
TAP	6	240	3
TAP	6	288	2
TAP	6	336	3
TAP	7	0	2
TAP	7	96	5
TAP	7	144	4
TAP	7	192	5
TAP	7	240	4
TAP	7	288	5
TAP	7	336	4
TAP	8	0	5
TAP	8	96	2
TAP	8	144	5
TAP	8	192	2
TAP	8	240	5
TAP	8	288	2
TAP	8	336	5
TAP	9	0	2
TAP	9	96	4
TAP	9	144	3
TAP	9	192	4
TAP	9	240	3
TAP	9	288	4
TAP	9	336	3
TAP	10	0	4
TAP	10	96	1
TAP	10	144	1
TAP	10	192	1
TAP	10	240	1
TAP	10	288	1
TAP	10	336	1
HLD	11	0	1	384
TAP	11	96	6
TAP	11	144	6
TAP	11	192	6
TAP	11	240	6
TAP	11	288	6
TAP	11	336	6
HLD	12	0	6	384
TAP	12	96	0
TAP	12	144	0
TAP	12	192	0
TAP	12	240	0
TAP	12	288	0
TAP	12	336	0
HLD	13	0	0	384
TAP	13	96	7
TAP	13	144	7
TAP	13	192	7
TAP	13	240	7
TAP	13	288	7
TAP	13	336	7
HLD	14	0	7	384
TAP	14	96	2
TAP	14	144	2
TAP	14	192	2
TAP	14	240	2
TAP	14	288	2
TAP	14	336	2
HLD	15	0	2	384
TAP	15	96	5
TAP	15	144	5
TAP	15	192	5
TAP	15	240	5
TAP	15	288	5
TAP	15	336	5
TAP	16	0	5
TAP	16	96	1
TAP	16	96	6
TAP	16	144	1
TAP	16	144	6
TAP	16	192	1
TAP	16	192	6
TAP	16	240	1
TAP	16	240	6
TAP	16	288	1
TAP	16	288	6
TAP	16	336	1
TAP	16	336	6
TAP	17	0	1
TAP	17	0	6
TAP	17	96	1
TAP	17	96	7
TAP	17	144	1
TAP	17	144	7
TAP	17	192	2
TAP	17	192	7
TAP	17	240	2
TAP	17	240	7
STR	17	288	3
SCL	17	288	3	96	96	0
STR	17	288	7
SCL	17	288	7	96	96	4
BRK	18	0	3
BRK	18	0	7
TAP	18	144	2
TAP	18	288	1
TAP	18	336	0
TAP	19	0	7
TAP	19	96	6
TAP	19	192	6
TAP	19	288	7
TAP	19	336	0
TAP	20	0	1
TAP	20	144	0
TAP	20	240	7
STR	20	288	0
SI_	20	288	0	96	48	5
STR	21	0	7
SI_	21	0	7	96	48	2
STR	21	96	1
SI_	21	96	1	96	48	4
STR	21	192	6
SI_	21	192	6	96	48	3
TAP	21	288	0
TAP	22	0	0
TAP	22	144	5
TAP	22	288	5
TAP	23	0	4
TAP	23	48	3
TAP	23	144	3
TAP	23	240	3
TAP	23	288	4
TAP	24	0	5
TAP	24	96	6
TAP	24	192	1
STR	24	288	0
SI_	24	288	0	96	48	5
STR	25	0	7
SI_	25	0	7	96	48	2
STR	25	96	1
SI_	25	96	1	96	48	4
STR	25	192	6
SI_	25	192	6	96	48	3
BRK	25	288	0
HLD	26	0	1	96
HLD	26	144	7	96
STR	26	288	1
SXL	26	288	1	96	48	3
STR	26	288	6
SXL	26	288	6	96	48	0
TAP	27	192	2
TAP	27	288	2
STR	28	0	6
SI_	28	0	6	96	48	2
TAP	28	96	6
STR	28	192	1
SI_	28	192	1	96	48	5
TAP	28	288	1
STR	29	0	7
SI_	29	0	7	96	48	3
TAP	29	96	7
STR	29	192	0
SI_	29	192	0	96	48	4
TAP	29	288	0
HLD	30	0	5	96
HLD	30	96	6	96
HLD	30	192	7	96
STR	30	288	0
SI_	30	288	0	96	48	4
TAP	31	96	7
TAP	31	192	7
TAP	31	288	0
STR	32	0	6
SCL	32	0	6	96	48	4
TAP	32	96	1
STR	32	192	1
SCR	32	192	1	96	48	3
STR	32	288	7
SI_	32	288	7	96	48	2
STR	33	0	0
SI_	33	0	0	96	48	5
STR	33	96	6
SI_	33	96	6	96	48	3
STR	33	192	1
SI_	33	192	1	96	48	4
TAP	33	288	7
BRK	34	0	7
TAP	34	96	0
TAP	34	96	7
STR	34	144	0
SXL	34	144	0	96	240	3
STR	34	144	7
SXR	34	144	7	96	240	4
TAP	35	192	5
TAP	35	288	6
HLD	36	0	7	96
HLD	36	144	0	96
TAP	36	288	1
STR	36	288	7
SCL	36	288	7	96	96	4
TAP	37	288	0
TAP	37	336	0
TAP	38	0	7
STR	38	48	0
SCR	38	48	0	96	96	3
STR	38	48	6
SCL	38	48	6	96	96	3
TAP	38	288	7
TAP	38	336	7
STR	39	0	0
SCR	39	0	0	96	192	4
STR	39	192	4
SCR	39	192	4	96	192	0
STR	40	0	0
SUR	40	0	0	96	144	4
STR	40	144	4
SCR	40	144	4	96	144	7
STR	40	288	7
SF_	40	288	7	96	144	3
BRK	42	0	1
BRK	42	0	5
TAP	42	96	3
TAP	42	96	7
STR	42	144	3
SXR	42	144	3	96	240	0
STR	42	144	7
SXR	42	144	7	96	240	4
TAP	43	192	0
TAP	43	288	7
HLD	44	0	2	96
HLD	44	0	6	96
HLD	44	144	1	96
HLD	44	144	5	96
STR	44	288	0
SCR	44	288	0	96	48	3
STR	44	288	4
SCR	44	288	4	96	48	7
TAP	45	192	0
STR	45	288	1
SCR	45	288	1	96	48	4
STR	45	288	7
SCL	45	288	7	96	48	4
TAP	46	288	7
TAP	46	336	7
STR	47	0	0
SUR	47	0	0	96	48	4
TAP	47	96	0
STR	47	192	7
SUL	47	192	7	96	48	3
TAP	47	288	7
STR	48	0	0
SCR	48	0	0	96	48	3
TAP	48	96	0
STR	48	192	7
SCL	48	192	7	96	48	4
TAP	48	288	7
STR	49	0	0
SCR	49	0	0	96	48	2
TAP	49	96	0
STR	49	192	7
SCL	49	192	7	96	48	5
TAP	49	288	7
BRK	50	0	0
TAP	50	96	1
TAP	50	192	1
TAP	50	288	7
TAP	50	336	7
STR	51	48	0
SCR	51	48	0	96	72	3
TAP	51	144	0
HLD	51	240	4	912
TAP	52	96	1
TAP	52	192	1
TAP	52	288	0
TAP	52	336	0
STR	53	48	7
SCR	53	48	7	96	72	2
TAP	53	144	7
HLD	53	240	3	144
TAP	54	96	5
TAP	54	192	4
TAP	54	288	3
TAP	54	336	2
TAP	55	48	2
TAP	55	192	0
TAP	55	288	0
STR	56	0	0
SXL	56	0	0	96	48	2
STR	56	192	0
SXR	56	192	0	96	48	6
STR	57	0	0
SUR	57	0	0	96	48	4
STR	57	192	0
SUL	57	192	0	96	48	4
HLD	58	0	2	96
HLD	58	0	6	96
HLD	58	144	1	96
HLD	58	144	5	96
HLD	58	288	2	96
HLD	58	288	6	96
HLD	59	48	3	96
HLD	59	48	7	96
STR	59	192	3
SCL	59	192	3	96	48	0
STR	59	192	7
SCL	59	192	7	96	48	4
TAP	59	288	3
TAP	59	288	7
HLD	60	0	3	96
HLD	60	0	7	96
HLD	60	144	0	96
HLD	60	144	4	96
HLD	60	288	1	96
HLD	60	288	5	96
TAP	61	96	2
TAP	61	96	6
STR	61	192	3
SCL	61	192	3	96	48	0
STR	61	192	7
SCL	61	192	7	96	48	4
TAP	61	288	3
TAP	61	288	7
TAP	62	0	7
TAP	62	96	1
TAP	62	144	1
TAP	62	240	5
TAP	62	336	5
TAP	63	48	5
TAP	63	144	5
BRK	63	240	1
TAP	63	264	0
TAP	63	288	7
TAP	63	312	6
TAP	63	336	5
TAP	63	360	4
TAP	64	0	3
TAP	64	24	2
TAP	64	48	1
TAP	64	72	0
TAP	64	96	7
TAP	64	112	6
TAP	64	128	5
TAP	64	144	4
TAP	64	160	3
TAP	64	176	2
TAP	64	192	6
TAP	64	224	7
TAP	64	256	6
TAP	64	288	7
TAP	64	320	6
TAP	64	352	7
BRK	65	0	6
BRK	65	32	6
TAP	66	0	4
TAP	66	144	5
TAP	66	288	6
TAP	66	336	7
TAP	67	0	0
TAP	67	96	0
STR	67	192	0
SLR	67	192	0	96	96	4
TAP	67	288	4
TAP	67	336	6
TAP	68	0	0
TAP	68	144	6
TAP	68	240	6
STR	68	288	0
SUR	68	288	0	96	96	4
STR	69	0	4
SUR	69	0	4	96	96	0
STR	69	96	0
SCR	69	96	0	96	96	4
STR	69	192	4
SCR	69	192	4	96	96	0
STR	69	288	0
SF_	69	288	0	96	96	4
TAP	70	192	7
TAP	70	288	0
STR	71	0	1
SCL	71	0	1	96	144	5
STR	71	144	5
SCL	71	144	5	96	144	1
TAP	72	0	6
TAP	72	96	6
TAP	72	192	6
TAP	72	288	4
TAP	72	336	5
STR	73	0	4
SI_	73	0	4	96	48	2
STR	73	96	4
SI_	73	96	4	96	48	6
STR	73	192	4
SI_	73	192	4	96	48	0
TAP	74	0	3
TAP	74	144	2
TAP	74	288	1
TAP	74	336	0
TAP	75	0	7
TAP	75	96	7
STR	75	192	7
SLL	75	192	7	96	96	3
TAP	75	288	3
TAP	75	336	1
TAP	76	0	7
TAP	76	96	1
TAP	76	144	1
TAP	76	240	1
STR	76	288	7
SUL	76	288	7	96	96	3
STR	77	0	3
SUL	77	0	3	96	96	7
STR	77	96	7
SCL	77	96	7	96	96	3
STR	77	192	3
SCL	77	192	3	96	96	7
STR	77	288	7
SF_	77	288	7	96	96	3
TAP	78	192	0
TAP	78	288	7
TAP	79	0	1
TAP	79	144	6
STR	79	288	0
SI_	79	288	0	96	6	4
TAP	80	96	6
TAP	80	192	1
TAP	80	288	3
TAP	80	336	2
STR	81	0	3
SI_	81	0	3	96	48	5
STR	81	96	3
SI_	81	96	3	96	48	1
STR	81	192	3
SI_	81	192	3	96	48	7
BRK	82	0	0
TAP	82	32	1
TAP	82	64	2
TAP	82	96	7
TAP	82	128	6
TAP	82	160	5
TAP	82	192	1
TAP	82	224	2
TAP	82	256	3
TAP	82	288	6
TAP	82	320	5
TAP	82	352	4
TAP	83	0	1
TAP	83	32	2
TAP	83	64	3
TAP	83	96	6
TAP	83	128	5
TAP	83	160	4
TAP	83	192	0
TAP	83	224	7
TAP	83	256	6
BRK	83	288	5
TAP	83	320	4
TAP	83	352	3
TAP	84	0	7
TAP	84	32	6
TAP	84	64	5
TAP	84	96	0
TAP	84	128	1
TAP	84	160	2
TAP	84	192	6
TAP	84	224	5
TAP	84	256	4
TAP	84	288	1
TAP	84	320	2
TAP	84	352	3
TAP	85	0	6
TAP	85	32	5
TAP	85	64	4
TAP	85	96	1
TAP	85	128	2
TAP	85	160	3
TAP	85	192	7
TAP	85	224	0
TAP	85	256	1
BRK	85	288	2
TAP	85	320	3
TAP	85	352	4
TAP	86	0	1
TAP	86	32	2
TAP	86	64	3
TAP	86	96	0
TAP	86	128	1
TAP	86	160	2
TAP	86	192	6
TAP	86	224	5
TAP	86	256	4
TAP	86	288	7
TAP	86	320	6
TAP	86	352	5
TAP	87	0	0
TAP	87	32	1
TAP	87	64	2
TAP	87	96	7
TAP	87	128	6
TAP	87	160	5
TAP	87	192	0
TAP	87	224	7
TAP	87	256	6
BRK	87	288	5
TAP	87	320	4
TAP	87	352	3
TAP	88	0	6
TAP	88	32	5
TAP	88	64	4
TAP	88	96	7
TAP	88	128	6
TAP	88	160	5
TAP	88	192	1
TAP	88	224	2
TAP	88	256	3
TAP	88	288	0
TAP	88	320	1
TAP	88	352	2
TAP	89	0	7
TAP	89	32	6
TAP	89	64	5
TAP	89	96	0
TAP	89	128	1
TAP	89	160	2
TAP	89	192	7
TAP	89	224	0
TAP	89	256	1
BRK	89	288	2
TAP	89	320	3
TAP	89	352	4
TAP	90	0	2
TAP	90	32	3
TAP	90	64	2
TAP	90	96	5
TAP	90	128	4
TAP	90	160	5
TAP	90	192	2
TAP	90	224	3
TAP	90	256	2
TAP	90	288	5
TAP	90	320	4
TAP	90	352	5
TAP	91	0	1
TAP	91	32	0
TAP	91	64	1
TAP	91	96	6
TAP	91	128	7
TAP	91	160	6
TAP	91	192	0
TAP	91	224	7
TAP	91	256	0
BRK	91	288	1
TAP	91	320	2
TAP	91	352	3
TAP	92	0	5
TAP	92	32	4
TAP	92	64	5
TAP	92	96	2
TAP	92	128	3
TAP	92	160	2
TAP	92	192	5
TAP	92	224	4
TAP	92	256	5
TAP	92	288	2
TAP	92	320	3
TAP	92	352	2
BRK	93	0	6
TAP	93	32	7
TAP	93	64	6
TAP	93	96	1
TAP	93	128	0
TAP	93	160	1
TAP	93	192	7
TAP	93	224	0
TAP	93	256	7
BRK	93	288	6
TAP	93	320	5
TAP	93	352	4
TAP	94	0	1
TAP	94	32	0
TAP	94	64	1
TAP	94	96	6
TAP	94	128	7
TAP	94	160	6
TAP	94	192	1
TAP	94	224	0
TAP	94	256	1
TAP	94	288	6
TAP	94	320	7
TAP	94	352	6
TAP	95	0	1
TAP	95	32	0
TAP	95	64	1
TAP	95	96	6
TAP	95	128	7
TAP	95	160	6
TAP	95	192	0
TAP	95	224	7
TAP	95	256	0
BRK	95	288	1
TAP	95	320	2
TAP	95	352	3
TAP	96	0	6
TAP	96	32	7
TAP	96	64	6
TAP	96	96	1
TAP	96	128	0
TAP	96	160	1
BRK	96	192	6
TAP	96	224	7
TAP	96	256	6
TAP	96	288	1
TAP	96	320	0
TAP	96	352	1
TAP	97	0	6
TAP	97	32	7
TAP	97	64	6
TAP	97	96	1
TAP	97	128	0
TAP	97	160	1
TAP	97	192	7
TAP	97	224	0
TAP	97	256	7
BRK	97	288	6
TAP	97	320	5
TAP	97	352	4
BRK	98	0	1
TAP	98	96	3
STR	98	96	7
SCL	98	96	7	96	48	4
STR	98	192	0
SCR	98	192	0	96	48	3
TAP	98	192	7
TAP	98	288	0
TAP	99	0	7
STR	99	96	1
SCR	99	96	1	96	48	4
TAP	99	96	4
TAP	99	192	1
STR	99	192	6
SCL	99	192	6	96	48	3
TAP	99	288	6
TAP	100	0	0
TAP	100	96	2
STR	100	96	6
SCL	100	96	6	96	48	3
STR	100	192	2
SCL	100	192	2	96	48	7
TAP	100	192	6
TAP	100	288	2
TAP	101	0	6
STR	101	96	1
SCR	101	96	1	96	48	4
TAP	101	96	5
TAP	101	192	1
STR	101	192	5
SCR	101	192	5	96	48	0
TAP	101	288	5
BRK	102	0	1
TAP	102	48	1
STR	102	96	7
SI_	102	96	7	96	48	4
TAP	102	144	7
STR	102	192	0
SI_	102	192	0	96	48	3
TAP	102	288	0
TAP	103	0	7
TAP	103	48	7
STR	103	96	0
SI_	103	96	0	96	48	3
TAP	103	144	0
STR	103	192	6
SI_	103	192	6	96	48	3
TAP	103	288	6
TAP	104	0	0
TAP	104	48	0
STR	104	96	6
SI_	104	96	6	96	48	3
TAP	104	144	6
STR	104	192	2
SI_	104	192	2	96	48	7
TAP	104	288	2
TAP	105	0	6
TAP	105	48	0
TAP	105	96	6
TAP	105	144	0
TAP	105	192	1
TAP	105	224	2
TAP	105	256	3
TAP	105	288	6
TAP	105	320	5
TAP	105	352	4
BRK	106	0	1
TAP	106	48	1
STR	106	96	7
SI_	106	96	7	96	48	4
TAP	106	144	7
STR	106	192	1
SI_	106	192	1	96	48	5
TAP	106	240	1
TAP	106	288	1
TAP	107	0	6
TAP	107	48	6
STR	107	96	0
SI_	107	96	0	96	48	4
TAP	107	144	0
STR	107	192	6
SI_	107	192	6	96	48	3
TAP	107	240	6
TAP	107	288	6
BRK	108	0	1
TAP	108	48	1
STR	108	96	7
SI_	108	96	7	96	48	4
TAP	108	144	7
STR	108	192	1
SI_	108	192	1	96	48	5
TAP	108	240	1
TAP	108	288	1
TAP	109	0	6
TAP	109	48	6
STR	109	96	0
SI_	109	96	0	96	48	4
TAP	109	144	0
STR	109	192	6
SI_	109	192	6	96	48	3
TAP	109	240	6
TAP	109	288	6
BST	110	0	0
SI_	110	0	0	96	48	3
TAP	110	48	0
STR	110	96	6
SI_	110	96	6	96	48	3
TAP	110	144	6
STR	110	192	0
SI_	110	192	0	96	48	4
TAP	110	240	0
TAP	110	288	0
STR	111	0	7
SI_	111	0	7	96	48	3
TAP	111	48	7
STR	111	96	1
SI_	111	96	1	96	48	5
TAP	111	144	1
STR	111	192	7
SI_	111	192	7	96	48	4
TAP	111	240	7
TAP	111	288	7
BRK	112	0	0
TAP	112	32	1
TAP	112	64	2
TAP	112	96	7
TAP	112	128	6
TAP	112	160	5
BRK	112	192	1
TAP	112	224	2
TAP	112	256	3
TAP	112	288	6
TAP	112	320	5
TAP	112	352	4
BRK	113	0	0
TAP	113	32	1
TAP	113	64	2
BRK	113	96	7
TAP	113	128	6
TAP	113	160	5
BRK	113	192	0
TAP	113	216	1
TAP	113	240	2
TAP	113	264	3
BRK	113	288	7
TAP	113	312	6
TAP	113	336	5
TAP	113	360	4
BRK	114	0	0
TAP	114	96	1
TAP	114	192	7
TAP	114	288	6
TAP	115	0	5
TAP	115	48	5
TAP	115	96	6
TAP	115	144	7
TAP	115	192	1
TAP	115	240	0
TAP	115	288	1
TAP	116	0	7
TAP	116	96	6
TAP	116	192	0
TAP	116	288	1
TAP	117	0	6
TAP	117	48	6
TAP	117	96	5
TAP	117	144	4
TAP	117	192	2
TAP	117	240	3
TAP	117	288	2
TAP	118	0	4
TAP	118	48	4
TAP	118	96	5
TAP	118	144	6
TAP	118	192	0
TAP	118	240	7
TAP	118	288	0
TAP	119	0	7
TAP	119	48	7
TAP	119	96	6
TAP	119	144	5
TAP	119	192	3
TAP	119	240	4
TAP	119	288	3
TAP	120	0	3
TAP	120	48	3
TAP	120	96	2
TAP	120	144	1
TAP	120	192	7
TAP	120	240	0
TAP	120	288	7
TAP	121	0	3
TAP	121	48	3
TAP	121	96	4
TAP	121	144	5
TAP	121	192	3
TAP	121	288	4
TAP	122	0	1
TAP	122	0	5
TAP	122	48	1
TAP	122	96	1
TAP	122	96	5
TAP	122	144	1
TAP	122	192	1
TAP	122	192	5
TAP	122	240	1
TAP	122	288	1
TAP	122	288	5
TAP	122	336	1
TAP	123	0	1
TAP	123	0	7
TAP	123	48	1
TAP	123	96	1
TAP	123	96	7
TAP	123	144	1
TAP	123	192	1
TAP	123	192	7
TAP	123	240	1
BRK	123	288	1
BRK	123	288	7
TAP	124	0	2
TAP	124	0	6
TAP	124	48	6
TAP	124	96	2
TAP	124	96	6
TAP	124	144	6
TAP	124	192	2
TAP	124	192	6
TAP	124	240	6
TAP	124	288	2
TAP	124	288	6
TAP	124	336	6
TAP	125	0	0
TAP	125	0	6
TAP	125	48	6
TAP	125	96	0
TAP	125	96	6
TAP	125	144	6
TAP	125	192	0
TAP	125	192	6
TAP	125	240	6
BRK	125	288	0
BRK	125	288	6
TAP	126	0	1
TAP	126	0	5
TAP	126	48	1
TAP	126	48	5
TAP	126	96	1
TAP	126	96	5
TAP	126	144	1
TAP	126	144	5
TAP	126	192	2
TAP	126	192	6
TAP	126	240	2
TAP	126	240	6
TAP	126	288	2
TAP	126	288	6
TAP	126	336	2
TAP	126	336	6
TAP	127	0	3
TAP	127	0	7
TAP	127	48	3
TAP	127	48	7
TAP	127	96	3
TAP	127	96	7
TAP	127	144	3
TAP	127	144	7
TAP	127	192	2
TAP	127	192	6
TAP	127	240	2
TAP	127	240	6
TAP	127	288	2
TAP	127	288	6
TAP	127	336	2
TAP	127	336	6
TAP	128	0	3
TAP	128	0	7
TAP	128	48	3
TAP	128	48	7
TAP	128	96	3
TAP	128	96	7
TAP	128	144	3
TAP	128	144	7
TAP	128	192	2
TAP	128	192	6
TAP	128	240	2
TAP	128	240	6
TAP	128	288	2
TAP	128	288	6
TAP	128	336	2
TAP	128	336	6
TAP	129	0	1
TAP	129	0	5
TAP	129	48	1
TAP	129	48	5
TAP	129	96	1
TAP	129	96	5
TAP	129	144	1
TAP	129	144	5
TAP	129	192	2
TAP	129	192	6
TAP	129	240	2
TAP	129	240	6
BRK	129	288	2
BRK	129	288	6
HLD	130	0	2	1728
HLD	130	0	6	1728
TAP	134	204	1
TAP	134	204	5
TAP	134	216	0
TAP	134	216	4
TAP	134	228	3
TAP	134	228	7

T_REC_TAP	681
T_REC_BRK	38
T_REC_XTP	0
T_REC_HLD	34
T_REC_XHO	0
T_REC_STR	103
T_REC_BST	1
T_REC_XST	0
T_REC_TTP	0
T_REC_THO	0
T_REC_SLD	104
T_REC_ALL	961
T_NUM_TAP	784
T_NUM_BRK	39
T_NUM_HLD	34
T_NUM_SLD	104
T_NUM_ALL	961
T_JUDGE_TAP	823
T_JUDGE_HLD	93
T_JUDGE_SLD	104
T_JUDGE_ALL	1020
TTM_EACHPAIRS	96
TTM_SCR_TAP	392000
TTM_SCR_BRK	101400
TTM_SCR_HLD	34000
TTM_SCR_SLD	156000
TTM_SCR_ALL	683400
TTM_SCR_S	659150
TTM_SCR_SS	679500
TTM_RAT_ACV	10057

