VERSION	0.00.00	1.03.00
FES_MODE	0
BPM_DEF	240.000	240.000	240.000	240.000
MET_DEF	4	4
RESOLUTION	384
CLK_DEF	384
COMPATIBLE_CODE	MA2

BPM	0	0	240.000
MET	0	0	4	4

HLD	2	0	2	384
HLD	3	0	0	384
HLD	4	0	7	192
HLD	4	192	6	192
HLD	5	0	5	192
HLD	5	192	4	192
TAP	6	0	3
TAP	6	96	3
TAP	6	192	3
TAP	6	288	3
TAP	7	0	4
TAP	7	96	4
TAP	7	192	4
TAP	7	288	4
TAP	8	0	3
TAP	8	0	4
TAP	8	96	3
TAP	8	96	4
TAP	8	192	2
TAP	8	192	5
TAP	8	288	2
TAP	8	288	5
TAP	9	0	1
TAP	9	0	6
TAP	9	96	1
TAP	9	96	6
TAP	9	192	0
TAP	9	192	7
BRK	9	288	0
BRK	9	288	7
TAP	10	0	0
HLD	10	96	0	96
TAP	10	192	6
HLD	10	288	6	96
TAP	11	0	4
HLD	11	96	4	96
TAP	11	192	2
HLD	11	288	2	96
TAP	12	0	0
HLD	12	96	0	96
TAP	12	192	5
HLD	12	288	5	96
TAP	13	0	2
HLD	13	96	2	96
TAP	13	192	7
TAP	13	288	0
TAP	13	288	7
TAP	14	0	0
HLD	14	96	0	96
TAP	14	192	2
HLD	14	288	2	96
TAP	15	0	4
HLD	15	96	4	96
TAP	15	192	6
TAP	15	288	6
STR	16	0	0
SCR	16	0	0	96	72	3
STR	16	192	7
SCL	16	192	7	96	72	4
TAP	17	0	1
TAP	17	96	0
TAP	17	192	7
BRK	17	288	1
BRK	17	288	6
TAP	18	0	3
TAP	18	96	2
TAP	18	192	1
TAP	18	288	0
TAP	19	0	7
TAP	19	96	6
TAP	19	192	5
TAP	19	288	4
TAP	20	0	2
TAP	20	96	1
TAP	20	96	3
TAP	20	192	5
TAP	20	288	4
TAP	20	288	6
TAP	21	0	1
TAP	21	96	0
TAP	21	96	2
TAP	21	192	6
TAP	21	288	5
TAP	21	288	7
TAP	22	0	6
TAP	22	0	7
TAP	22	96	5
TAP	22	192	4
TAP	22	288	2
TAP	22	288	3
TAP	23	0	0
TAP	23	0	1
TAP	23	96	2
TAP	23	192	3
TAP	23	288	4
TAP	23	288	5
HLD	24	0	4	96
HLD	24	0	6	96
HLD	24	192	2	96
HLD	24	192	3	96
STR	25	0	0
SI_	25	0	0	96	72	5
STR	25	0	1
SI_	25	0	1	96	72	5
TAP	26	0	2
TAP	26	0	6
TAP	26	96	1
TAP	26	192	0
TAP	26	288	7
TAP	27	0	1
TAP	27	0	5
TAP	27	96	6
TAP	27	192	7
TAP	27	288	0
TAP	28	0	2
TAP	28	96	1
TAP	28	96	4
TAP	28	192	5
TAP	28	288	3
TAP	28	288	6
TAP	29	0	1
TAP	29	96	2
TAP	29	96	7
TAP	29	192	6
TAP	29	288	0
TAP	29	288	5
TAP	30	0	2
TAP	30	0	3
TAP	30	96	1
TAP	30	96	4
TAP	30	192	0
TAP	30	192	5
TAP	30	288	6
TAP	30	288	7
TAP	31	0	0
TAP	31	0	1
TAP	31	96	2
TAP	31	96	7
TAP	31	192	3
TAP	31	192	6
TAP	31	288	4
TAP	31	288	5
HLD	32	0	1	96
HLD	32	0	3	96
HLD	32	192	4	96
HLD	32	192	5	96
STR	33	0	6
SI_	33	0	6	96	72	2
STR	33	0	7
SI_	33	0	7	96	72	2
TAP	34	0	7
TAP	34	96	1
STR	34	144	1
SCR	34	144	1	96	144	5
TAP	35	192	0
TAP	35	288	7
HLD	36	0	6	144
TAP	36	0	7
HLD	36	144	5	144
STR	36	288	4
SUR	36	288	4	96	168	3
TAP	37	288	1
HLD	38	0	1	192
TAP	38	192	0
TAP	38	288	6
HLD	39	0	6	192
TAP	39	192	7
HLD	40	0	0	144
TAP	40	144	7
TAP	40	288	1
TAP	40	288	6
STR	41	0	1
SI_	41	0	1	96	72	4
STR	41	0	6
SI_	41	0	6	96	72	3
TAP	42	0	0
TAP	42	96	6
STR	42	144	6
SCL	42	144	6	96	144	2
TAP	43	192	7
TAP	43	288	0
TAP	44	0	0
HLD	44	0	1	144
HLD	44	144	2	144
TAP	44	288	3
TAP	45	0	3
TAP	45	0	4
TAP	45	192	3
TAP	45	192	4
TAP	45	288	2
TAP	45	288	5
TAP	46	0	1
STR	46	0	6
SI_	46	0	6	96	96	2
TAP	46	288	1
HLD	47	0	1	192
HLD	47	192	7	192
STR	48	0	0
SI_	48	0	0	96	72	4
TAP	48	96	7
STR	48	192	7
SI_	48	192	7	96	72	3
TAP	48	288	1
STR	49	0	1
SI_	49	0	1	96	72	4
TAP	49	96	6
TAP	49	192	6
HLD	50	0	5	624
TAP	50	96	2
TAP	50	192	2
TAP	50	288	0
TAP	50	336	0
TAP	51	48	1
TAP	51	144	2
TAP	51	240	3
HLD	52	0	2	624
TAP	52	96	5
TAP	52	192	5
TAP	52	288	7
TAP	52	336	7
TAP	53	48	6
TAP	53	144	5
TAP	53	240	4
HLD	54	0	6	432
TAP	54	96	3
TAP	54	192	3
TAP	54	288	4
TAP	54	336	4
TAP	55	48	4
TAP	55	192	2
TAP	55	288	1
STR	56	0	0
SI_	56	0	0	96	72	4
TAP	56	192	6
STR	57	0	7
SI_	57	0	7	96	72	3
TAP	57	192	1
HLD	58	0	0	144
HLD	58	144	2	144
HLD	58	288	4	144
STR	59	48	6
SI_	59	48	6	96	72	2
TAP	59	192	0
TAP	59	288	0
HLD	60	0	6	144
HLD	60	144	4	144
HLD	60	288	2	144
STR	61	48	0
SI_	61	48	0	96	72	4
TAP	61	192	7
TAP	61	288	7
HLD	62	0	0	96
TAP	62	96	7
STR	62	144	7
SXR	62	144	7	96	288	3
TAP	63	240	0
TAP	63	288	0
STR	63	336	0
SF_	63	336	0	96	336	4
BRK	65	192	1
BRK	65	192	6
STR	66	0	7
SI_	66	0	7	96	72	3
TAP	66	144	2
TAP	66	288	5
TAP	66	336	5
TAP	67	0	5
TAP	67	96	3
TAP	67	192	6
TAP	67	288	1
TAP	67	336	1
TAP	68	0	1
TAP	68	144	7
TAP	68	240	0
TAP	68	288	0
TAP	69	0	6
TAP	69	0	7
TAP	69	96	0
TAP	69	96	5
TAP	69	192	1
TAP	69	192	4
TAP	69	288	2
TAP	69	288	3
TAP	70	0	0
TAP	70	0	5
TAP	70	192	5
TAP	70	288	7
HLD	71	0	0	144
HLD	71	144	2	144
TAP	71	288	3
TAP	72	0	5
TAP	72	96	3
TAP	72	192	4
TAP	72	288	0
TAP	72	336	0
STR	73	96	6
SI_	73	96	6	96	72	2
STR	73	192	2
SI_	73	192	2	96	72	6
STR	74	0	0
SI_	74	0	0	96	72	4
TAP	74	144	5
TAP	74	288	2
TAP	74	336	2
TAP	75	0	2
TAP	75	96	4
TAP	75	192	1
TAP	75	288	6
TAP	75	336	6
TAP	76	0	6
TAP	76	96	0
TAP	76	144	0
TAP	76	240	7
TAP	76	288	7
TAP	77	0	0
TAP	77	0	1
TAP	77	96	2
TAP	77	96	7
BRK	77	192	3
BRK	77	192	6
BRK	77	288	4
BRK	77	288	5
BRK	78	0	2
BRK	78	0	7
TAP	78	192	2
TAP	78	288	0
HLD	79	0	7	144
HLD	79	144	5	144
TAP	79	288	4
TAP	80	0	2
TAP	80	96	4
TAP	80	192	3
TAP	80	288	7
TAP	80	336	7
BRK	81	96	0
BRK	81	96	7
BRK	81	192	1
BRK	81	192	6
BRK	81	288	2
BRK	81	288	5
TAP	82	0	3
TAP	82	96	4
TAP	82	96	5
TAP	82	192	4
TAP	82	288	2
TAP	82	288	3
TAP	83	0	2
TAP	83	96	3
TAP	83	96	5
TAP	83	192	5
TAP	83	288	2
TAP	83	288	4
TAP	84	0	1
TAP	84	96	2
TAP	84	96	4
TAP	84	192	6
TAP	84	288	3
TAP	84	288	5
HLD	85	0	1	96
TAP	85	96	4
HLD	85	192	6	96
TAP	85	288	3
TAP	86	0	2
TAP	86	96	4
TAP	86	96	5
TAP	86	192	5
TAP	86	288	2
TAP	86	288	3
TAP	87	0	1
TAP	87	96	4
TAP	87	96	5
TAP	87	192	6
TAP	87	288	2
TAP	87	288	3
TAP	88	0	0
TAP	88	96	3
TAP	88	96	5
TAP	88	192	7
TAP	88	288	2
TAP	88	288	4
STR	89	0	3
SI_	89	0	3	96	72	0
STR	89	192	7
SI_	89	192	7	96	72	4
TAP	90	0	0
TAP	90	96	2
TAP	90	96	3
TAP	90	192	4
TAP	90	192	5
TAP	90	288	2
TAP	90	288	4
TAP	91	0	7
TAP	91	96	4
TAP	91	96	5
TAP	91	192	2
TAP	91	192	3
TAP	91	288	3
TAP	91	288	5
TAP	92	0	0
TAP	92	96	3
TAP	92	96	5
TAP	92	192	7
TAP	92	288	2
TAP	92	288	4
HLD	93	0	0	96
TAP	93	96	5
HLD	93	192	7	96
TAP	93	288	2
TAP	94	0	0
TAP	94	0	7
TAP	94	96	3
TAP	94	96	5
TAP	94	192	0
TAP	94	192	7
TAP	94	288	2
TAP	94	288	4
TAP	95	0	0
TAP	95	0	7
TAP	95	96	3
TAP	95	96	6
TAP	95	192	0
TAP	95	192	7
TAP	95	288	1
TAP	95	288	4
TAP	96	0	0
TAP	96	0	6
TAP	96	96	2
TAP	96	96	4
TAP	96	192	1
TAP	96	192	7
TAP	96	288	3
TAP	96	288	5
STR	97	0	0
SI_	97	0	0	96	72	3
STR	97	192	4
SI_	97	192	4	96	72	7
TAP	98	0	3
TAP	98	96	3
TAP	98	192	5
TAP	98	288	5
TAP	99	0	1
TAP	99	96	1
TAP	99	192	7
TAP	99	288	7
TAP	100	0	6
TAP	100	0	7
TAP	100	96	6
TAP	100	96	7
TAP	100	192	0
TAP	100	192	1
TAP	100	288	0
TAP	100	288	1
TAP	101	0	2
TAP	101	0	3
TAP	101	96	2
TAP	101	96	3
TAP	101	192	4
TAP	101	192	5
TAP	101	288	4
TAP	101	288	5
TAP	102	0	3
TAP	102	0	5
TAP	102	96	2
TAP	102	96	4
TAP	102	192	3
TAP	102	192	6
TAP	102	288	1
TAP	102	288	4
TAP	103	0	2
TAP	103	0	6
TAP	103	96	1
TAP	103	96	5
TAP	103	192	3
TAP	103	192	7
TAP	103	288	0
TAP	103	288	4
HLD	104	0	3	96
HLD	104	0	7	96
HLD	104	192	1	96
HLD	104	192	5	96
TAP	105	0	0
TAP	105	0	7
TAP	105	96	1
TAP	105	96	6
TAP	105	192	2
TAP	105	192	5
TAP	105	288	3
TAP	105	288	4
STR	106	0	0
SI_	106	0	0	96	48	4
TAP	106	96	7
STR	106	192	7
SI_	106	192	7	96	48	3
TAP	106	288	0
TAP	107	0	1
TAP	107	96	1
TAP	107	192	0
TAP	107	192	7
TAP	107	288	0
TAP	107	288	7
STR	108	0	6
SI_	108	0	6	96	48	3
TAP	108	96	1
STR	108	192	1
SI_	108	192	1	96	48	4
TAP	108	288	6
TAP	109	0	7
TAP	109	96	7
TAP	109	192	1
TAP	109	192	6
TAP	109	288	1
TAP	109	288	6
STR	110	0	0
SI_	110	0	0	96	48	4
STR	110	0	7
SI_	110	0	7	96	48	5
STR	110	192	0
SI_	110	192	0	96	48	2
STR	110	192	7
SI_	110	192	7	96	48	3
STR	111	0	0
SI_	111	0	0	96	48	5
STR	111	0	1
SI_	111	0	1	96	48	4
STR	111	192	6
SI_	111	192	6	96	48	3
STR	111	192	7
SI_	111	192	7	96	48	2
TAP	112	0	0
TAP	112	96	0
TAP	112	192	7
TAP	112	288	7
TAP	113	0	0
TAP	113	0	1
TAP	113	96	3
TAP	113	96	6
TAP	113	192	2
TAP	113	192	7
BRK	113	288	4
BRK	113	288	5
HLD	114	0	2	288
TAP	114	144	3
TAP	114	288	1
HLD	115	0	5	288
TAP	115	144	4
TAP	115	288	6
HLD	116	0	1	288
TAP	116	144	2
TAP	116	288	7
HLD	117	0	6	288
TAP	117	144	5
TAP	117	288	0
TAP	118	0	0
TAP	118	0	1
TAP	118	144	3
TAP	118	144	4
TAP	118	288	5
TAP	118	288	7
TAP	119	0	6
TAP	119	0	7
TAP	119	144	3
TAP	119	144	4
TAP	119	288	0
TAP	119	288	2
TAP	120	0	2
TAP	120	0	3
TAP	120	144	0
TAP	120	144	7
TAP	120	288	4
TAP	120	288	6
HLD	121	0	3	192
BRK	121	192	4
TAP	122	0	0
TAP	122	48	0
TAP	122	96	0
TAP	122	144	0
TAP	122	192	7
TAP	122	240	7
TAP	122	288	7
TAP	122	336	7
TAP	123	0	0
TAP	123	144	1
TAP	123	288	2
TAP	124	0	1
TAP	124	0	3
TAP	124	96	1
TAP	124	96	3
TAP	124	192	4
TAP	124	192	6
TAP	124	288	4
TAP	124	288	6
TAP	125	0	2
TAP	125	48	2
TAP	125	96	2
TAP	125	192	4
TAP	125	240	4
TAP	125	288	4
TAP	126	0	3
TAP	126	48	3
TAP	126	96	3
TAP	126	144	3
TAP	126	192	5
TAP	126	240	5
TAP	126	288	5
TAP	126	336	5
TAP	127	0	1
TAP	127	48	1
TAP	127	96	1
TAP	127	144	1
TAP	127	192	7
TAP	127	240	7
TAP	127	288	7
TAP	127	336	7
TAP	128	0	2
TAP	128	48	2
TAP	128	96	2
TAP	128	144	2
TAP	128	192	2
TAP	128	192	4
TAP	128	240	2
TAP	128	240	4
TAP	128	288	2
TAP	128	288	4
TAP	128	336	2
TAP	128	336	4
BRK	129	0	2
BRK	129	0	4
BRK	129	192	3
BRK	129	192	6
BST	130	0	0
SXL	130	0	0	96	1632	3
BST	130	0	4
SXL	130	0	4	96	1632	7

T_REC_TAP	462
T_REC_BRK	25
T_REC_XTP	0
T_REC_HLD	60
T_REC_XHO	0
T_REC_STR	41
T_REC_BST	2
T_REC_XST	0
T_REC_TTP	0
T_REC_THO	0
T_REC_SLD	43
T_REC_ALL	633
T_NUM_TAP	503
T_NUM_BRK	27
T_NUM_HLD	60
T_NUM_SLD	43
T_NUM_ALL	633
T_JUDGE_TAP	530
T_JUDGE_HLD	114
T_JUDGE_SLD	43
T_JUDGE_ALL	687
TTM_EACHPAIRS	146
TTM_SCR_TAP	251500
TTM_SCR_BRK	70200
TTM_SCR_HLD	60000
TTM_SCR_SLD	64500
TTM_SCR_ALL	446200
TTM_SCR_S	430200
TTM_SCR_SS	443500
TTM_RAT_ACV	10060

