VERSION	0.00.00	1.03.00
FES_MODE	0
BPM_DEF	240.000	240.000	240.000	240.000
MET_DEF	4	4
RESOLUTION	384
CLK_DEF	384
COMPATIBLE_CODE	MA2

BPM	0	0	240.000
MET	0	0	4	4

HLD	2	0	2	384
HLD	3	0	4	384
HLD	4	0	3	384
HLD	5	0	5	384
HLD	6	0	3	384
HLD	7	0	4	384
HLD	8	0	2	384
HLD	9	0	4	384
HLD	10	0	3	192
HLD	10	192	5	192
HLD	11	0	3	192
TAP	11	192	4
HLD	12	0	4	192
HLD	12	192	2	192
HLD	13	0	4	192
TAP	13	192	3
HLD	14	0	3	192
HLD	14	192	6	192
HLD	15	0	2	192
TAP	15	192	3
HLD	16	0	1	192
HLD	16	192	5	192
TAP	17	0	4
TAP	17	96	3
TAP	17	192	2
TAP	17	192	5
TAP	18	0	0
TAP	18	96	0
TAP	18	192	0
TAP	19	0	1
TAP	19	96	1
TAP	19	192	1
TAP	20	0	2
TAP	20	96	2
TAP	20	192	2
TAP	21	0	3
TAP	21	96	3
TAP	21	192	3
TAP	22	0	4
TAP	22	96	4
TAP	22	192	4
TAP	23	0	5
TAP	23	96	5
TAP	23	192	5
HLD	24	0	6	192
HLD	24	192	0	192
TAP	25	0	7
TAP	25	96	0
TAP	25	192	7
TAP	26	0	7
TAP	26	96	7
TAP	26	192	7
TAP	27	0	6
TAP	27	96	6
TAP	27	192	6
TAP	28	0	5
TAP	28	96	5
TAP	28	192	5
TAP	29	0	4
TAP	29	96	4
TAP	29	192	4
TAP	30	0	3
TAP	30	96	3
TAP	30	192	3
TAP	31	0	2
TAP	31	96	2
TAP	31	192	2
HLD	32	0	1	192
HLD	32	192	7	192
TAP	33	0	0
TAP	33	96	7
TAP	33	192	0
HLD	34	0	0	192
TAP	34	192	7
TAP	35	0	0
TAP	35	96	0
TAP	35	192	1
TAP	35	288	1
HLD	36	0	2	192
TAP	36	192	3
TAP	37	0	3
TAP	37	96	3
TAP	37	192	4
TAP	37	288	4
HLD	38	0	5	192
TAP	38	192	4
TAP	39	0	4
TAP	39	96	4
TAP	39	192	3
TAP	39	288	3
HLD	40	0	2	192
TAP	40	192	3
HLD	41	0	5	192
TAP	41	192	4
HLD	42	0	7	192
TAP	42	192	0
TAP	43	0	7
TAP	43	96	7
TAP	43	192	6
TAP	43	288	6
HLD	44	0	5	192
TAP	44	192	4
TAP	45	0	4
TAP	45	96	4
TAP	45	192	3
TAP	45	288	3
HLD	46	0	2	192
TAP	46	192	3
TAP	47	0	3
TAP	47	96	3
TAP	47	192	4
TAP	47	288	4
HLD	48	0	5	192
HLD	48	192	2	192
HLD	49	0	4	192
TAP	49	192	3
TAP	50	0	3
TAP	50	96	3
TAP	50	192	4
TAP	50	288	4
TAP	51	0	5
TAP	51	96	5
TAP	51	192	4
TAP	51	192	6
TAP	52	0	4
TAP	52	96	4
TAP	52	192	3
TAP	52	288	3
TAP	53	0	2
TAP	53	96	2
TAP	53	192	1
TAP	53	192	3
TAP	54	0	0
TAP	54	96	0
TAP	54	192	7
TAP	54	288	7
TAP	55	0	0
TAP	55	96	0
TAP	55	192	0
TAP	55	192	7
HLD	56	0	2	192
HLD	56	192	5	192
HLD	57	0	3	192
TAP	57	192	4
TAP	58	0	4
TAP	58	96	4
TAP	58	192	3
TAP	58	288	3
TAP	59	0	2
TAP	59	96	2
TAP	59	192	1
TAP	59	288	1
TAP	60	0	3
TAP	60	96	3
TAP	60	192	4
TAP	60	288	4
TAP	61	0	5
TAP	61	96	5
TAP	61	192	6
TAP	61	288	6
STR	62	0	7
SCL	62	0	7	96	240	4
STR	63	0	3
SCL	63	0	3	96	240	0
TAP	64	0	7
TAP	64	96	7
TAP	64	192	0
TAP	64	288	0
TAP	65	0	1
TAP	65	0	6
TAP	65	96	1
TAP	65	96	6
BRK	65	192	1
BRK	65	192	6
HLD	66	0	1	192
HLD	66	192	0	192
TAP	67	0	1
TAP	67	96	2
TAP	67	192	3
TAP	67	288	4
HLD	68	0	5	192
HLD	68	192	4	192
TAP	69	0	5
TAP	69	96	6
TAP	69	192	7
TAP	69	288	0
HLD	70	0	1	192
HLD	70	192	0	192
TAP	71	0	1
TAP	71	96	2
TAP	71	192	3
TAP	71	288	4
HLD	72	0	5	192
HLD	72	192	4	192
TAP	73	0	5
TAP	73	96	6
TAP	73	192	0
TAP	73	192	7
HLD	74	0	6	192
HLD	74	192	7	192
TAP	75	0	6
TAP	75	96	5
TAP	75	192	4
TAP	75	288	3
HLD	76	0	2	192
HLD	76	192	3	192
TAP	77	0	2
TAP	77	96	1
TAP	77	192	0
TAP	77	288	7
HLD	78	0	6	192
HLD	78	192	7	192
TAP	79	0	6
TAP	79	96	5
TAP	79	192	4
TAP	79	288	3
HLD	80	0	2	192
HLD	80	192	3	192
TAP	81	0	2
TAP	81	96	1
BRK	81	192	0
BRK	81	192	7
TAP	82	0	0
TAP	82	0	7
TAP	82	96	0
TAP	82	192	0
TAP	82	288	0
TAP	83	0	1
TAP	83	96	1
TAP	83	192	1
TAP	83	288	1
TAP	84	0	2
TAP	84	96	2
TAP	84	192	2
TAP	84	288	2
TAP	85	0	3
TAP	85	96	3
TAP	85	192	3
TAP	85	288	3
TAP	86	0	4
TAP	86	96	4
TAP	86	192	4
TAP	86	288	4
TAP	87	0	5
TAP	87	96	5
TAP	87	192	5
TAP	87	288	5
TAP	88	0	6
TAP	88	96	6
TAP	88	192	6
TAP	88	288	6
TAP	89	0	7
TAP	89	96	7
TAP	89	192	7
TAP	89	288	7
TAP	90	0	0
TAP	90	0	7
TAP	90	96	0
TAP	90	96	7
TAP	90	192	6
TAP	90	288	6
TAP	91	0	5
TAP	91	96	5
TAP	91	192	4
TAP	91	288	4
TAP	92	0	3
TAP	92	96	3
TAP	92	192	2
TAP	92	288	2
TAP	93	0	1
TAP	93	96	1
TAP	93	192	0
TAP	93	288	0
TAP	94	0	0
TAP	94	0	7
TAP	94	96	0
TAP	94	96	7
TAP	94	192	1
TAP	94	288	1
TAP	95	0	2
TAP	95	96	2
TAP	95	192	3
TAP	95	288	3
TAP	96	0	4
TAP	96	96	4
TAP	96	192	5
TAP	96	288	5
TAP	97	0	6
TAP	97	96	6
TAP	97	192	7
TAP	97	288	7
TAP	98	0	0
TAP	98	0	7
TAP	98	96	1
TAP	98	192	2
TAP	98	288	3
TAP	99	0	3
TAP	99	0	4
TAP	99	96	4
TAP	99	192	5
TAP	99	288	6
TAP	100	0	0
TAP	100	0	7
TAP	100	96	6
TAP	100	192	5
TAP	100	288	4
TAP	101	0	3
TAP	101	0	4
TAP	101	96	3
TAP	101	192	2
TAP	101	288	1
TAP	102	0	0
TAP	102	0	7
TAP	102	96	6
TAP	102	192	5
TAP	102	288	4
TAP	103	0	2
TAP	103	0	3
TAP	103	96	4
TAP	103	192	5
TAP	103	288	6
TAP	104	0	0
TAP	104	0	7
TAP	104	96	1
TAP	104	192	2
TAP	104	288	3
TAP	105	0	4
TAP	105	0	5
TAP	105	96	3
TAP	105	192	2
TAP	105	288	1
TAP	106	0	0
TAP	106	0	7
TAP	106	96	6
TAP	106	192	6
TAP	106	192	7
TAP	106	288	5
TAP	107	0	4
TAP	107	0	5
TAP	107	96	2
TAP	107	192	2
TAP	107	192	3
TAP	107	288	1
TAP	108	0	0
TAP	108	0	1
TAP	108	96	2
TAP	108	192	2
TAP	108	192	3
TAP	108	288	5
TAP	109	0	4
TAP	109	0	5
TAP	109	96	6
TAP	109	192	6
TAP	109	192	7
TAP	109	288	5
TAP	110	0	4
TAP	110	0	5
TAP	110	96	2
TAP	110	192	2
TAP	110	192	3
TAP	110	288	5
TAP	111	0	4
TAP	111	0	6
TAP	111	96	2
TAP	111	192	1
TAP	111	192	3
TAP	111	288	5
TAP	112	0	4
TAP	112	0	5
TAP	112	96	4
TAP	112	96	5
TAP	112	192	2
TAP	112	192	3
TAP	112	288	2
TAP	112	288	3
TAP	113	0	0
TAP	113	0	1
TAP	113	96	0
TAP	113	96	1
TAP	113	192	6
TAP	113	192	7
TAP	113	288	6
TAP	113	288	7
STR	114	0	5
SCR	114	0	5	96	576	2
STR	116	0	2
SCL	116	0	2	96	576	5
STR	118	0	4
SI_	118	0	4	96	192	7
STR	119	0	0
SI_	119	0	0	96	192	3
STR	120	0	4
SCR	120	0	4	96	192	7
STR	121	0	0
SCR	121	0	0	96	192	3
TAP	122	0	4
TAP	122	96	5
TAP	122	192	6
TAP	122	288	7
TAP	123	0	0
TAP	123	96	1
TAP	123	192	2
TAP	123	288	3
TAP	123	288	4
TAP	124	0	3
TAP	124	96	2
TAP	124	192	1
TAP	124	288	0
TAP	125	0	7
TAP	125	96	6
TAP	125	192	5
TAP	125	288	3
TAP	125	288	4
TAP	126	0	5
TAP	126	96	6
TAP	126	192	7
TAP	126	288	0
TAP	126	288	1
TAP	127	0	2
TAP	127	96	1
TAP	127	192	0
TAP	127	288	6
TAP	127	288	7
TAP	128	0	3
TAP	128	0	4
TAP	128	96	3
TAP	128	96	4
TAP	128	192	2
TAP	128	192	5
TAP	128	288	2
TAP	128	288	5
TAP	129	0	1
TAP	129	0	6
TAP	129	96	1
TAP	129	96	6
TAP	129	192	0
TAP	129	192	7
TAP	129	240	0
TAP	129	240	7
TAP	129	288	0
TAP	129	288	7
BRK	130	0	1
BRK	130	0	6

T_REC_TAP	368
T_REC_BRK	6
T_REC_XTP	0
T_REC_HLD	53
T_REC_XHO	0
T_REC_STR	8
T_REC_BST	0
T_REC_XST	0
T_REC_TTP	0
T_REC_THO	0
T_REC_SLD	8
T_REC_ALL	443
T_NUM_TAP	376
T_NUM_BRK	6
T_NUM_HLD	53
T_NUM_SLD	8
T_NUM_ALL	443
T_JUDGE_TAP	382
T_JUDGE_HLD	122
T_JUDGE_SLD	8
T_JUDGE_ALL	512
TTM_EACHPAIRS	56
TTM_SCR_TAP	188000
TTM_SCR_BRK	15600
TTM_SCR_HLD	53000
TTM_SCR_SLD	12000
TTM_SCR_ALL	268600
TTM_SCR_S	260000
TTM_SCR_SS	268000
TTM_RAT_ACV	10022

