VERSION	0.00.00	1.03.00
FES_MODE	0
BPM_DEF	240.000	240.000	240.000	240.000
MET_DEF	4	4
RESOLUTION	384
CLK_DEF	384
COMPATIBLE_CODE	MA2

BPM	0	0	240.000
MET	0	0	4	4

TAP	2	0	0
TAP	3	0	0
TAP	4	0	7
TAP	5	0	7
TAP	6	0	6
TAP	7	0	6
TAP	8	0	5
TAP	9	0	5
TAP	10	0	4
TAP	11	0	4
TAP	12	0	3
TAP	13	0	3
TAP	14	0	2
TAP	15	0	2
TAP	16	0	1
TAP	17	0	1
TAP	18	0	0
TAP	19	0	0
TAP	20	0	1
TAP	21	0	1
TAP	22	0	2
TAP	23	0	2
TAP	24	0	3
TAP	24	192	3
TAP	25	0	3
TAP	26	0	4
TAP	27	0	4
TAP	28	0	5
TAP	29	0	5
TAP	30	0	6
TAP	31	0	6
TAP	32	0	7
TAP	32	192	7
BRK	33	0	7
HLD	34	0	7	384
TAP	36	0	5
TAP	36	192	5
TAP	37	0	5
HLD	38	0	3	384
TAP	40	0	1
TAP	40	192	1
TAP	41	0	1
HLD	42	0	0	384
TAP	44	0	2
TAP	44	192	2
TAP	45	0	2
HLD	46	0	4	384
TAP	48	0	6
TAP	48	192	6
TAP	49	0	6
TAP	50	0	7
TAP	50	192	7
TAP	51	0	6
TAP	52	0	5
TAP	52	192	5
TAP	53	0	4
TAP	54	0	3
TAP	54	192	3
TAP	55	0	2
HLD	56	0	1	384
TAP	58	0	0
TAP	58	192	0
TAP	59	0	1
TAP	60	0	2
TAP	60	192	2
TAP	61	0	3
TAP	62	0	4
TAP	62	192	4
TAP	63	0	5
BRK	64	0	6
BRK	64	0	7
TAP	66	0	7
TAP	66	192	7
TAP	67	0	7
TAP	67	192	7
TAP	68	0	0
TAP	68	192	0
TAP	69	0	0
TAP	69	192	0
TAP	70	0	1
TAP	70	192	1
TAP	71	0	1
TAP	71	192	1
TAP	72	0	2
TAP	72	192	2
TAP	73	0	2
TAP	73	0	3
TAP	74	0	3
TAP	74	192	3
TAP	75	0	3
TAP	75	192	3
TAP	76	0	2
TAP	76	192	2
TAP	77	0	2
TAP	77	192	2
TAP	78	0	1
TAP	78	192	1
TAP	79	0	1
TAP	79	192	1
TAP	80	0	0
TAP	80	192	0
TAP	81	0	0
TAP	81	0	7
TAP	82	0	0
TAP	82	96	0
TAP	82	192	0
TAP	83	0	0
TAP	83	96	0
TAP	83	192	0
TAP	84	0	1
TAP	84	96	1
TAP	84	192	1
TAP	85	0	1
TAP	85	96	1
TAP	85	192	1
TAP	86	0	2
TAP	86	96	2
TAP	86	192	2
TAP	87	0	2
TAP	87	96	2
TAP	87	192	2
TAP	88	0	3
TAP	88	96	3
TAP	88	192	3
TAP	89	0	3
TAP	89	96	3
TAP	89	192	3
TAP	90	0	4
TAP	90	96	4
TAP	90	192	4
TAP	91	0	4
TAP	91	96	4
TAP	91	192	4
TAP	92	0	5
TAP	92	96	5
TAP	92	192	5
TAP	93	0	5
TAP	93	96	5
TAP	93	192	5
TAP	94	0	6
TAP	94	96	6
TAP	94	192	6
TAP	95	0	6
TAP	95	96	6
TAP	95	192	6
TAP	96	0	7
TAP	96	96	7
TAP	96	192	7
TAP	97	0	7
TAP	97	96	7
TAP	97	192	7
TAP	98	0	7
TAP	98	96	7
TAP	98	192	7
TAP	98	288	7
TAP	99	0	7
TAP	99	96	7
TAP	99	192	7
TAP	100	0	6
TAP	100	96	6
TAP	100	192	6
TAP	100	288	6
TAP	101	0	6
TAP	101	96	6
TAP	101	192	6
TAP	102	0	5
TAP	102	96	5
TAP	102	192	5
TAP	102	288	5
TAP	103	0	5
TAP	103	96	5
TAP	103	192	5
TAP	104	0	4
TAP	104	96	4
TAP	104	192	4
TAP	104	288	4
TAP	105	0	4
TAP	105	96	4
TAP	105	192	4
TAP	106	0	3
TAP	106	96	3
TAP	106	192	3
TAP	106	288	3
TAP	107	0	3
TAP	107	96	3
TAP	107	192	3
TAP	108	0	2
TAP	108	96	2
TAP	108	192	2
TAP	108	288	2
TAP	109	0	2
TAP	109	96	2
TAP	109	192	2
TAP	110	0	1
TAP	110	96	1
TAP	110	192	1
TAP	110	288	1
TAP	111	0	1
TAP	111	96	1
TAP	111	192	1
TAP	112	0	0
TAP	112	96	0
TAP	112	192	0
TAP	112	288	0
TAP	113	0	0
TAP	113	96	0
TAP	113	192	0
STR	114	0	0
SI_	114	0	0	96	288	3
STR	116	0	7
SI_	116	0	7	96	288	4
STR	118	0	0
SI_	118	0	0	96	288	4
STR	120	0	7
SI_	120	0	7	96	288	3
TAP	122	0	3
TAP	122	0	4
TAP	122	96	3
TAP	122	96	4
TAP	122	192	3
TAP	122	192	4
TAP	122	288	3
TAP	122	288	4
TAP	123	0	3
TAP	123	0	4
TAP	124	0	2
TAP	124	0	5
TAP	124	96	2
TAP	124	96	5
TAP	124	192	2
TAP	124	192	5
TAP	124	288	2
TAP	124	288	5
TAP	125	0	2
TAP	125	0	5
TAP	126	0	1
TAP	126	0	6
TAP	126	96	1
TAP	126	96	6
TAP	126	192	1
TAP	126	192	6
TAP	126	288	1
TAP	126	288	6
TAP	127	0	1
TAP	127	0	6
TAP	128	0	0
TAP	128	0	7
TAP	128	96	0
TAP	128	96	7
TAP	128	192	0
TAP	128	192	7
TAP	128	288	0
TAP	128	288	7
TAP	129	0	0
TAP	129	0	7
BRK	130	0	1
BRK	130	0	6

T_REC_TAP	239
T_REC_BRK	5
T_REC_XTP	0
T_REC_HLD	5
T_REC_XHO	0
T_REC_STR	4
T_REC_BST	0
T_REC_XST	0
T_REC_TTP	0
T_REC_THO	0
T_REC_SLD	4
T_REC_ALL	257
T_NUM_TAP	243
T_NUM_BRK	5
T_NUM_HLD	5
T_NUM_SLD	4
T_NUM_ALL	257
T_JUDGE_TAP	248
T_JUDGE_HLD	20
T_JUDGE_SLD	4
T_JUDGE_ALL	272
TTM_EACHPAIRS	24
TTM_SCR_TAP	121500
TTM_SCR_BRK	13000
TTM_SCR_HLD	5000
TTM_SCR_SLD	6000
TTM_SCR_ALL	145500
TTM_SCR_S	140650
TTM_SCR_SS	145000
TTM_RAT_ACV	10034

