VERSION	0.00.00	1.03.00
FES_MODE	0
BPM_DEF	180.000	180.000	180.000	180.000
MET_DEF	4	4
RESOLUTION	384
CLK_DEF	384
COMPATIBLE_CODE	MA2

BPM	0	0	180.000
MET	0	0	4	4

STR	2	0	3
SCL	2	0	3	96	144	4
HLD	3	0	6	72
HLD	3	72	5	72
TAP	3	144	4
HLD	3	192	1	72
HLD	3	264	2	72
TAP	3	336	3
STR	4	0	4
SCR	4	0	4	96	144	3
TAP	4	288	0
TAP	4	288	7
HLD	5	0	1	72
HLD	5	72	2	72
TAP	5	144	3
HLD	5	192	6	72
HLD	5	264	5	72
TAP	5	336	4
STR	6	0	3
SCL	6	0	3	96	144	4
TAP	6	288	0
TAP	6	288	7
HLD	7	0	6	72
HLD	7	72	5	72
TAP	7	144	4
HLD	7	192	1	72
HLD	7	264	2	72
TAP	7	336	3
STR	8	0	4
SCR	8	0	4	96	144	1
STR	8	288	3
SCL	8	288	3	96	192	4
STR	10	0	1
SI_	10	0	1	96	48	3
STR	10	0	5
SI_	10	0	5	96	48	7
STR	10	192	3
SI_	10	192	3	96	48	5
STR	10	192	7
SI_	10	192	7	96	48	1
STR	11	0	0
SI_	11	0	0	96	48	5
STR	11	0	7
SI_	11	0	7	96	48	2
STR	11	192	2
SI_	11	192	2	96	48	5
STR	12	0	7
SCL	12	0	7	96	48	4
STR	12	192	3
SCL	12	192	3	96	48	0
STR	13	0	0
SI_	13	0	0	96	48	4
STR	13	0	6
SI_	13	0	6	96	48	2
STR	13	192	1
SI_	13	192	1	96	48	5
STR	13	192	7
SI_	13	192	7	96	48	3
STR	14	0	1
SCL	14	0	1	96	96	6
STR	14	192	5
SUR	14	192	5	96	96	2
STR	15	0	4
SUL	15	0	4	96	192	3
STR	16	0	0
SCR	16	0	0	96	96	3
STR	16	96	3
SCR	16	96	3	96	96	6
STR	16	192	6
SCR	16	192	6	96	96	1
STR	16	288	1
SCR	16	288	1	96	96	4
TAP	17	0	4
TAP	17	96	0
BRK	17	192	1
BRK	17	192	6
STR	18	0	1
SCR	18	0	1	96	48	4
TAP	18	48	0
TAP	18	96	7
STR	18	192	6
SCL	18	192	6	96	48	3
TAP	18	240	7
TAP	18	288	0
STR	19	0	1
SCR	19	0	1	96	48	4
TAP	19	48	0
TAP	19	96	7
STR	19	192	6
SCL	19	192	6	96	48	3
TAP	19	240	7
TAP	19	288	0
STR	20	0	2
SCL	20	0	2	96	48	7
TAP	20	48	3
TAP	20	96	4
STR	20	192	5
SCR	20	192	5	96	48	0
TAP	20	240	4
TAP	20	288	3
STR	21	0	2
SCL	21	0	2	96	48	7
TAP	21	48	3
TAP	21	96	4
STR	21	192	5
SCR	21	192	5	96	48	0
TAP	21	240	4
TAP	21	288	3
STR	22	0	1
SUR	22	0	1	96	48	5
TAP	22	48	0
TAP	22	96	7
STR	22	192	6
SUL	22	192	6	96	48	2
TAP	22	240	7
TAP	22	288	0
STR	23	0	1
SUR	23	0	1	96	48	5
TAP	23	48	0
TAP	23	96	7
STR	23	192	6
SUL	23	192	6	96	48	2
TAP	23	240	7
TAP	23	288	0
TAP	24	0	1
TAP	24	0	4
TAP	24	96	4
TAP	24	96	5
TAP	24	144	3
TAP	24	144	6
TAP	24	240	2
TAP	24	240	3
TAP	24	288	1
TAP	24	288	4
TAP	25	0	2
TAP	25	0	5
TAP	25	48	3
TAP	25	96	4
BRK	25	192	1
BRK	25	192	6
STR	26	0	2
SCL	26	0	2	96	576	3
TAP	26	0	3
TAP	26	96	3
TAP	26	192	3
TAP	26	288	3
TAP	27	0	2
TAP	27	96	2
TAP	27	192	2
TAP	27	288	2
TAP	28	0	4
STR	28	0	5
SCR	28	0	5	96	576	4
TAP	28	96	4
TAP	28	192	4
TAP	28	288	4
TAP	29	0	5
TAP	29	96	5
TAP	29	192	5
TAP	29	288	5
STR	30	0	2
SCL	30	0	2	96	576	3
TAP	30	0	3
TAP	30	96	3
TAP	30	192	3
TAP	30	288	3
TAP	31	0	2
TAP	31	96	2
TAP	31	192	2
TAP	31	288	2
TAP	32	0	4
STR	32	0	5
SCR	32	0	5	96	384	3
TAP	32	96	4
TAP	32	192	4
TAP	32	288	4
TAP	33	0	5
TAP	33	96	5
BRK	33	192	4
BRK	33	240	6
BRK	33	288	0
BRK	33	336	2
TAP	34	0	6
TAP	34	48	5
TAP	34	96	4
TAP	34	168	2
TAP	34	192	3
TAP	34	240	3
TAP	34	288	0
TAP	34	288	6
TAP	35	0	1
TAP	35	48	2
TAP	35	96	3
TAP	35	168	5
TAP	35	192	4
TAP	35	240	4
TAP	35	288	1
TAP	35	288	7
TAP	36	0	6
TAP	36	48	5
TAP	36	96	4
TAP	36	168	2
TAP	36	192	3
TAP	36	240	3
TAP	36	288	0
TAP	36	288	6
TAP	37	0	1
TAP	37	48	2
TAP	37	96	3
TAP	37	168	5
STR	37	192	4
SI_	37	192	4	96	48	0
TAP	37	240	4
TAP	38	0	7
TAP	38	48	6
TAP	38	96	5
TAP	38	168	1
TAP	38	192	2
TAP	38	240	2
TAP	38	288	0
TAP	38	288	3
TAP	39	0	0
TAP	39	48	1
TAP	39	96	2
TAP	39	168	6
TAP	39	192	5
TAP	39	240	5
TAP	39	288	4
TAP	39	288	7
TAP	40	0	7
TAP	40	48	6
TAP	40	96	5
TAP	40	168	1
TAP	40	192	2
TAP	40	240	2
TAP	40	288	0
TAP	40	288	3
TAP	41	0	6
TAP	41	0	7
TAP	41	48	5
TAP	41	96	0
TAP	41	144	0
TAP	41	144	1
TAP	41	192	2
TAP	41	240	7
TAP	41	288	1
TAP	41	288	6
TAP	42	0	2
TAP	42	0	3
STR	42	48	2
SI_	42	48	2	96	48	6
STR	42	48	3
SI_	42	48	3	96	48	7
TAP	42	336	1
TAP	42	336	4
STR	43	48	6
SI_	43	48	6	96	48	2
STR	43	48	7
SI_	43	48	7	96	48	3
TAP	43	96	6
TAP	43	96	7
BRK	43	240	0
BRK	43	240	1
TAP	44	0	4
TAP	44	0	5
STR	44	48	4
SI_	44	48	4	96	48	0
STR	44	48	5
SI_	44	48	5	96	48	1
TAP	44	288	3
TAP	44	288	6
TAP	44	336	3
TAP	44	336	6
STR	45	48	0
SI_	45	48	0	96	48	4
STR	45	48	1
SI_	45	48	1	96	48	5
TAP	45	96	0
TAP	45	96	1
TAP	45	240	2
TAP	45	288	3
TAP	45	336	4
STR	46	0	5
SCL	46	0	5	96	96	2
STR	46	192	1
SUR	46	192	1	96	96	5
STR	47	0	6
SCR	47	0	6	96	192	5
TAP	48	0	4
TAP	48	0	5
TAP	48	48	3
TAP	48	48	6
TAP	48	144	2
TAP	48	144	3
TAP	48	192	1
TAP	48	192	4
TAP	48	288	0
TAP	48	288	7
TAP	48	336	1
TAP	48	336	6
TAP	49	48	2
TAP	49	48	5
TAP	49	96	3
TAP	49	120	4
TAP	49	144	3
BRK	49	192	1
BRK	49	192	6
STR	50	0	6
SI_	50	0	6	96	48	3
STR	50	0	7
SI_	50	0	7	96	48	2
TAP	50	96	6
TAP	50	96	7
STR	50	192	0
SI_	50	192	0	96	48	5
STR	50	240	5
SUR	50	240	5	96	48	3
TAP	51	48	7
TAP	51	96	6
TAP	51	144	5
HLD	51	192	0	72
HLD	51	264	1	72
TAP	51	336	2
STR	52	0	0
SI_	52	0	0	96	48	5
STR	52	0	1
SI_	52	0	1	96	48	4
TAP	52	96	0
TAP	52	96	1
STR	52	192	7
SI_	52	192	7	96	48	2
STR	52	240	2
SUL	52	240	2	96	48	4
TAP	53	48	0
TAP	53	96	1
TAP	53	144	2
STR	53	192	0
SI_	53	192	0	96	48	4
STR	53	192	7
SI_	53	192	7	96	48	3
STR	54	0	6
SCL	54	0	6	96	48	3
STR	54	0	7
SCR	54	0	7	96	48	2
TAP	54	96	6
TAP	54	96	7
STR	54	192	0
SI_	54	192	0	96	48	5
STR	54	240	5
SUR	54	240	5	96	48	3
STR	55	48	7
SCL	55	48	7	96	48	3
STR	55	96	3
SCL	55	96	3	96	48	7
STR	56	0	2
SUL	56	0	2	96	48	6
STR	56	0	6
SUL	56	0	6	96	48	2
STR	56	96	2
SCR	56	96	2	96	48	5
STR	56	96	6
SCR	56	96	6	96	48	1
STR	56	288	1
SUR	56	288	1	96	48	5
STR	56	288	5
SUR	56	288	5	96	48	1
STR	57	0	1
SCL	57	0	1	96	48	6
STR	57	0	5
SCL	57	0	5	96	48	2
BRK	57	192	1
BRK	57	192	6
STR	58	0	6
SI_	58	0	6	96	48	3
STR	58	0	7
SI_	58	0	7	96	48	2
TAP	58	96	6
TAP	58	96	7
STR	58	192	1
SI_	58	192	1	96	48	4
STR	58	240	4
SUL	58	240	4	96	96	2
TAP	59	48	7
TAP	59	96	6
TAP	59	144	5
HLD	59	192	0	72
HLD	59	264	2	72
TAP	59	336	4
STR	60	0	0
SI_	60	0	0	96	48	5
STR	60	0	1
SI_	60	0	1	96	48	4
TAP	60	96	0
TAP	60	96	1
STR	60	192	6
SI_	60	192	6	96	48	3
STR	60	240	3
SUR	60	240	3	96	96	5
TAP	61	48	0
TAP	61	96	1
TAP	61	144	2
HLD	61	192	7	72
HLD	61	264	5	72
TAP	61	336	3
STR	62	0	6
SCL	62	0	6	96	48	3
STR	62	0	7
SCR	62	0	7	96	48	2
TAP	62	96	6
TAP	62	96	7
STR	62	192	1
SI_	62	192	1	96	48	4
STR	62	240	4
SUL	62	240	4	96	96	2
TAP	63	48	7
TAP	63	96	6
TAP	63	144	5
HLD	63	192	0	72
HLD	63	264	2	72
TAP	63	336	4
STR	64	0	0
SCL	64	0	0	96	48	5
STR	64	0	1
SCR	64	0	1	96	48	4
TAP	64	96	0
TAP	64	96	1
STR	64	192	6
SI_	64	192	6	96	48	3
STR	64	240	3
SUR	64	240	3	96	96	5
STR	65	48	0
SI_	65	48	0	96	48	3
STR	65	96	7
SI_	65	96	7	96	48	4
BRK	65	144	0
BRK	65	192	7
TAP	65	336	6
TAP	65	336	7
TAP	66	0	0
TAP	66	0	5
TAP	66	144	0
TAP	66	144	1
TAP	66	192	2
TAP	66	192	7
TAP	66	336	1
TAP	66	336	5
STR	67	0	1
SCR	67	0	1	96	48	4
STR	67	0	5
SCR	67	0	5	96	48	0
STR	67	96	1
SUR	67	96	1	96	48	7
TAP	67	288	2
TAP	67	288	3
TAP	68	0	1
TAP	68	0	4
TAP	68	144	4
TAP	68	144	5
TAP	68	192	3
TAP	68	192	6
TAP	68	336	2
TAP	68	336	6
STR	69	0	2
SCL	69	0	2	96	48	7
STR	69	0	6
SCL	69	0	6	96	48	3
STR	69	96	6
SUL	69	96	6	96	48	0
TAP	69	288	3
TAP	69	288	4
STR	70	0	1
SCR	70	0	1	96	48	4
TAP	70	48	1
TAP	70	96	7
TAP	70	144	7
TAP	70	192	5
TAP	70	240	6
TAP	70	240	7
TAP	70	288	2
TAP	70	336	0
TAP	70	336	1
STR	71	0	6
SCL	71	0	6	96	48	3
TAP	71	48	6
TAP	71	96	0
TAP	71	144	0
TAP	71	192	2
TAP	71	240	0
TAP	71	240	1
TAP	71	288	5
TAP	71	336	6
TAP	71	336	7
STR	72	0	1
SCR	72	0	1	96	48	4
TAP	72	48	1
TAP	72	96	7
TAP	72	144	7
TAP	72	192	5
TAP	72	240	6
TAP	72	240	7
TAP	72	288	2
TAP	72	336	0
TAP	72	336	1
STR	73	0	6
SCL	73	0	6	96	48	3
TAP	73	48	6
TAP	73	96	0
TAP	73	144	0
TAP	73	192	2
TAP	73	240	0
TAP	73	240	1
TAP	73	288	5
TAP	73	336	6
TAP	73	336	7
STR	74	0	2
SCL	74	0	2	96	48	7
TAP	74	48	2
TAP	74	96	5
TAP	74	144	5
TAP	74	192	4
TAP	74	240	0
TAP	74	240	1
TAP	74	288	3
TAP	74	336	6
TAP	74	336	7
STR	75	0	5
SCR	75	0	5	96	48	0
TAP	75	48	5
TAP	75	96	2
TAP	75	144	2
TAP	75	192	3
TAP	75	240	6
TAP	75	240	7
TAP	75	288	4
TAP	75	336	0
TAP	75	336	1
STR	76	0	2
SCL	76	0	2	96	48	7
TAP	76	48	2
TAP	76	96	5
TAP	76	144	5
TAP	76	192	4
TAP	76	240	0
TAP	76	240	1
TAP	76	288	3
TAP	76	336	6
STR	77	0	0
SCR	77	0	0	96	48	3
STR	77	0	1
SCL	77	0	1	96	48	6
TAP	77	48	0
TAP	77	48	1
BRK	77	192	2
BRK	77	192	7
STR	78	0	6
SCL	78	0	6	96	48	3
TAP	78	48	6
TAP	78	96	0
TAP	78	144	0
TAP	78	192	2
TAP	78	240	1
TAP	78	240	7
TAP	78	288	5
TAP	78	336	0
TAP	78	336	6
STR	79	0	1
SCR	79	0	1	96	48	4
TAP	79	48	1
TAP	79	96	7
TAP	79	144	7
TAP	79	192	5
TAP	79	240	0
TAP	79	240	6
TAP	79	288	2
TAP	79	336	1
TAP	79	336	7
STR	80	0	6
SCL	80	0	6	96	48	3
TAP	80	48	6
TAP	80	96	0
TAP	80	144	0
TAP	80	192	2
TAP	80	240	1
TAP	80	240	7
TAP	80	288	5
TAP	80	336	0
TAP	80	336	6
STR	81	0	1
SCR	81	0	1	96	48	4
TAP	81	48	1
TAP	81	96	7
TAP	81	144	7
TAP	81	192	5
TAP	81	240	1
TAP	81	240	7
TAP	81	288	2
TAP	81	336	0
TAP	81	336	6
STR	82	0	5
SCR	82	0	5	96	48	0
TAP	82	48	5
TAP	82	96	2
TAP	82	144	2
TAP	82	192	3
TAP	82	240	5
TAP	82	240	7
TAP	82	288	4
TAP	82	336	1
TAP	82	336	7
STR	83	0	2
SCL	83	0	2	96	48	7
TAP	83	48	2
TAP	83	96	5
TAP	83	144	5
TAP	83	192	4
TAP	83	240	0
TAP	83	240	2
TAP	83	288	3
TAP	83	336	0
TAP	83	336	6
STR	84	0	5
SCR	84	0	5	96	48	0
TAP	84	48	5
TAP	84	96	2
TAP	84	144	2
TAP	84	192	3
TAP	84	240	5
TAP	84	240	7
TAP	84	288	4
TAP	84	336	1
STR	85	0	6
SCR	85	0	6	96	48	1
STR	85	0	7
SCL	85	0	7	96	48	4
TAP	85	48	6
TAP	85	48	7
BRK	85	192	0
BRK	85	192	5
TAP	85	336	6
TAP	85	336	7
TAP	86	0	0
TAP	86	0	5
TAP	86	144	0
TAP	86	144	1
TAP	86	192	2
TAP	86	192	7
TAP	86	336	1
TAP	86	336	5
STR	87	0	1
SCR	87	0	1	96	48	4
STR	87	0	5
SCR	87	0	5	96	48	0
STR	87	96	5
SUR	87	96	5	96	48	3
TAP	87	288	6
TAP	87	288	7
TAP	88	0	0
TAP	88	0	5
TAP	88	144	0
TAP	88	144	1
TAP	88	192	2
TAP	88	192	7
TAP	88	336	2
TAP	88	336	6
STR	89	0	2
SCL	89	0	2	96	48	7
STR	89	0	6
SCL	89	0	6	96	48	3
STR	89	96	2
SUL	89	96	2	96	48	4
TAP	89	288	0
TAP	89	288	7
BRK	90	0	1
BRK	90	0	6

T_REC_TAP	382
T_REC_BRK	22
T_REC_XTP	0
T_REC_HLD	20
T_REC_XHO	0
T_REC_STR	125
T_REC_BST	0
T_REC_XST	0
T_REC_TTP	0
T_REC_THO	0
T_REC_SLD	125
T_REC_ALL	674
T_NUM_TAP	507
T_NUM_BRK	22
T_NUM_HLD	20
T_NUM_SLD	125
T_NUM_ALL	674
T_JUDGE_TAP	529
T_JUDGE_HLD	40
T_JUDGE_SLD	125
T_JUDGE_ALL	694
TTM_EACHPAIRS	127
TTM_SCR_TAP	253500
TTM_SCR_BRK	57200
TTM_SCR_HLD	20000
TTM_SCR_SLD	187500
TTM_SCR_ALL	518200
TTM_SCR_S	500550
TTM_SCR_SS	516000
TTM_RAT_ACV	10042

