VERSION	0.00.00	1.03.00
FES_MODE	0
BPM_DEF	180.000	180.000	180.000	180.000
MET_DEF	4	4
RESOLUTION	384
CLK_DEF	384
COMPATIBLE_CODE	MA2

BPM	0	0	180.000
MET	0	0	4	4

STR	2	0	1
SCR	2	0	1	96	144	4
HLD	3	0	5	192
HLD	3	192	6	192
STR	4	0	7
SCR	4	0	7	96	144	2
HLD	5	0	0	192
HLD	5	192	7	192
STR	6	0	6
SCL	6	0	6	96	144	3
HLD	7	0	2	192
HLD	7	192	1	192
STR	8	0	0
SCL	8	0	0	96	144	5
BRK	9	0	0
TAP	10	0	2
TAP	10	96	2
TAP	10	192	2
TAP	10	192	3
TAP	11	0	5
TAP	11	96	5
TAP	11	192	4
TAP	11	192	5
TAP	12	0	3
TAP	12	96	3
TAP	12	192	2
TAP	12	192	4
TAP	13	0	4
TAP	13	96	4
TAP	13	192	3
TAP	13	192	5
TAP	14	0	1
TAP	14	96	0
TAP	14	192	2
TAP	14	192	7
TAP	15	0	6
TAP	15	96	7
TAP	15	192	0
TAP	15	192	5
TAP	16	0	3
TAP	16	0	4
TAP	16	96	2
TAP	16	96	5
TAP	16	192	1
TAP	16	192	6
TAP	16	288	0
TAP	16	288	7
STR	17	0	0
SCR	17	0	0	96	96	3
STR	17	0	7
SCL	17	0	7	96	96	4
HLD	18	0	5	96
TAP	18	96	4
TAP	18	192	2
TAP	18	240	3
TAP	18	288	2
HLD	19	0	6	96
HLD	19	96	5	96
HLD	19	192	4	96
TAP	19	288	3
HLD	20	0	1	96
HLD	20	96	2	96
HLD	20	192	3	96
TAP	20	288	4
STR	21	0	5
SCR	21	0	5	96	96	0
HLD	22	0	2	96
TAP	22	96	3
TAP	22	192	5
TAP	22	240	4
TAP	22	288	5
HLD	23	0	1	96
HLD	23	96	2	96
HLD	23	192	3	96
TAP	23	288	4
STR	24	0	3
SI_	24	0	3	96	96	0
STR	24	0	4
SI_	24	0	4	96	96	7
BRK	25	0	1
BRK	25	0	6
HLD	26	0	2	672
TAP	26	0	3
TAP	26	96	3
TAP	26	192	4
TAP	26	288	4
TAP	27	0	3
TAP	27	96	3
TAP	27	192	4
TAP	27	288	3
TAP	28	0	4
HLD	28	0	5	480
TAP	28	96	4
TAP	28	192	3
TAP	28	288	3
TAP	29	0	4
TAP	29	96	4
TAP	29	192	3
TAP	29	240	4
TAP	29	288	3
HLD	30	0	6	672
TAP	30	0	7
TAP	30	96	7
TAP	30	192	0
TAP	30	288	0
TAP	31	0	7
TAP	31	96	7
TAP	31	192	0
TAP	31	288	7
TAP	32	0	0
HLD	32	0	1	480
TAP	32	96	0
TAP	32	192	7
TAP	32	288	7
TAP	33	0	0
TAP	33	96	0
TAP	33	192	7
TAP	33	240	0
TAP	33	288	7
TAP	34	0	2
TAP	34	96	2
TAP	34	96	3
TAP	34	192	4
TAP	34	240	3
TAP	34	288	4
TAP	35	0	5
TAP	35	96	4
TAP	35	96	5
TAP	35	192	3
TAP	35	240	4
TAP	35	288	3
TAP	36	0	6
TAP	36	96	6
TAP	36	96	7
TAP	36	192	0
TAP	36	240	7
TAP	36	288	0
TAP	37	0	1
TAP	37	96	0
TAP	37	96	1
TAP	37	192	7
TAP	37	240	0
TAP	37	288	7
TAP	38	0	2
TAP	38	96	1
TAP	38	96	3
TAP	38	192	4
TAP	38	240	3
TAP	38	288	4
TAP	39	0	5
TAP	39	96	4
TAP	39	96	6
TAP	39	192	3
TAP	39	240	4
TAP	39	288	3
TAP	40	0	1
TAP	40	96	0
TAP	40	96	2
TAP	40	192	7
TAP	40	240	0
TAP	40	288	7
STR	41	0	0
SI_	41	0	0	96	96	4
TAP	42	0	2
TAP	42	0	5
TAP	42	96	2
TAP	42	96	5
TAP	42	192	3
TAP	42	240	4
HLD	42	336	3	144
HLD	42	336	4	144
TAP	43	192	2
TAP	43	192	5
TAP	44	0	1
TAP	44	0	6
TAP	44	96	1
TAP	44	96	6
TAP	44	192	1
TAP	44	192	6
TAP	44	288	0
HLD	44	336	7	144
HLD	45	96	6	96
HLD	45	192	5	96
TAP	45	288	4
HLD	46	0	3	144
HLD	46	144	2	144
TAP	46	288	1
HLD	47	0	5	144
HLD	47	144	6	144
TAP	47	288	7
STR	48	0	0
SSL	48	0	0	96	192	4
BRK	49	192	1
BRK	49	192	6
TAP	50	0	2
TAP	50	0	4
TAP	50	96	7
TAP	50	192	3
TAP	50	192	5
TAP	50	288	0
TAP	51	0	2
TAP	51	0	4
TAP	51	96	5
TAP	51	96	7
TAP	51	192	3
TAP	51	192	5
TAP	51	288	0
TAP	51	288	2
TAP	52	0	3
TAP	52	96	4
TAP	52	96	6
TAP	52	192	4
TAP	52	288	1
TAP	52	288	3
STR	53	0	1
SI_	53	0	1	96	48	5
STR	53	192	6
SI_	53	192	6	96	48	2
TAP	54	0	1
TAP	54	0	3
TAP	54	96	6
TAP	54	96	7
TAP	54	192	3
TAP	54	192	5
TAP	54	288	0
TAP	54	288	1
STR	55	0	0
SCR	55	0	0	96	48	3
STR	55	192	4
SCR	55	192	4	96	48	7
TAP	56	0	0
TAP	56	0	1
TAP	56	96	2
TAP	56	96	3
TAP	56	192	4
TAP	56	192	5
TAP	56	288	6
TAP	56	288	7
STR	57	0	3
SCL	57	0	3	96	96	0
STR	57	0	7
SCL	57	0	7	96	96	4
TAP	58	0	1
TAP	58	96	0
TAP	58	96	2
TAP	58	192	6
TAP	58	288	5
TAP	58	288	7
TAP	59	0	2
TAP	59	0	3
TAP	59	96	6
TAP	59	96	7
TAP	59	192	4
TAP	59	192	5
TAP	59	288	0
TAP	59	288	1
TAP	60	0	2
TAP	60	96	1
TAP	60	96	3
TAP	60	192	5
TAP	60	288	4
TAP	60	288	6
TAP	61	0	0
TAP	61	0	1
TAP	61	96	4
TAP	61	96	5
TAP	61	192	6
TAP	61	192	7
TAP	61	288	2
TAP	61	288	3
TAP	62	0	0
TAP	62	0	4
TAP	62	96	1
TAP	62	96	5
TAP	62	192	2
TAP	62	192	6
TAP	62	288	3
TAP	62	288	7
TAP	63	0	2
TAP	63	0	6
TAP	63	96	1
TAP	63	96	5
TAP	63	192	0
TAP	63	192	4
TAP	63	288	3
TAP	63	288	7
TAP	64	0	6
TAP	64	0	7
TAP	64	96	4
TAP	64	96	5
TAP	64	192	2
TAP	64	192	3
TAP	64	288	0
TAP	64	288	1
STR	65	0	6
SI_	65	0	6	96	96	4
STR	65	0	7
SI_	65	0	7	96	96	3
TAP	65	336	2
TAP	66	0	3
TAP	66	144	5
TAP	66	192	4
TAP	66	336	3
TAP	67	0	4
TAP	67	96	3
TAP	67	192	2
TAP	67	192	5
HLD	67	288	1	96
TAP	68	0	0
TAP	68	144	6
TAP	68	192	7
TAP	68	336	0
TAP	69	0	7
TAP	69	96	0
TAP	69	192	1
TAP	69	192	6
HLD	69	288	7	96
BRK	70	0	0
TAP	70	96	2
TAP	70	96	4
TAP	70	192	0
TAP	70	192	7
TAP	70	288	3
TAP	70	288	5
TAP	71	0	1
TAP	71	0	4
TAP	71	96	6
TAP	71	96	7
TAP	71	192	3
TAP	71	192	6
TAP	71	288	0
TAP	71	288	1
TAP	72	0	1
TAP	72	0	7
TAP	72	96	2
TAP	72	96	3
TAP	72	192	0
TAP	72	192	6
TAP	72	288	4
TAP	72	288	5
TAP	73	0	2
TAP	73	0	3
TAP	73	96	3
TAP	73	96	4
TAP	73	192	4
TAP	73	192	5
TAP	73	288	5
TAP	73	288	6
TAP	74	0	3
TAP	74	0	4
TAP	74	96	0
TAP	74	96	6
TAP	74	192	3
TAP	74	192	4
TAP	74	288	1
TAP	74	288	7
TAP	75	0	6
TAP	75	0	7
TAP	75	96	0
TAP	75	96	1
TAP	75	192	6
TAP	75	192	7
TAP	75	288	0
TAP	75	288	1
TAP	76	0	3
TAP	76	96	1
TAP	76	192	5
TAP	76	288	7
TAP	77	0	0
TAP	77	0	7
TAP	77	96	3
TAP	77	96	4
BRK	77	192	1
BRK	77	192	6
HLD	78	0	1	96
TAP	78	96	0
HLD	78	192	6	96
TAP	78	288	7
HLD	79	0	2	96
TAP	79	96	0
HLD	79	192	5	96
TAP	79	288	7
HLD	80	0	3	96
TAP	80	96	1
HLD	80	192	4	96
TAP	80	288	6
TAP	81	0	4
TAP	81	0	5
TAP	81	96	3
TAP	81	96	4
TAP	81	192	2
TAP	81	192	3
TAP	81	288	1
TAP	81	288	2
STR	82	0	0
SI_	82	0	0	96	48	5
STR	82	0	1
SI_	82	0	1	96	48	4
STR	82	192	6
SI_	82	192	6	96	48	3
STR	82	192	7
SI_	82	192	7	96	48	2
STR	83	0	0
SCL	83	0	0	96	48	5
STR	83	0	1
SCR	83	0	1	96	48	4
STR	83	192	6
SCL	83	192	6	96	48	3
STR	83	192	7
SCR	83	192	7	96	48	2
TAP	84	0	0
TAP	84	96	2
TAP	84	192	6
TAP	84	288	4
TAP	85	0	3
TAP	85	0	4
TAP	85	96	0
TAP	85	96	7
BRK	85	192	1
BRK	85	192	6
TAP	85	336	2
TAP	86	0	3
TAP	86	144	5
TAP	86	192	4
TAP	86	336	3
TAP	87	0	4
TAP	87	96	3
TAP	87	192	2
TAP	87	192	5
HLD	87	288	1	96
TAP	88	0	0
TAP	88	144	6
TAP	88	192	7
TAP	88	336	0
TAP	89	0	7
TAP	89	96	0
TAP	89	192	1
TAP	89	192	6
BRK	89	288	0
BRK	89	288	7
BRK	90	0	1
BRK	90	0	6

T_REC_TAP	335
T_REC_BRK	14
T_REC_XTP	0
T_REC_HLD	39
T_REC_XHO	0
T_REC_STR	27
T_REC_BST	0
T_REC_XST	0
T_REC_TTP	0
T_REC_THO	0
T_REC_SLD	27
T_REC_ALL	442
T_NUM_TAP	362
T_NUM_BRK	14
T_NUM_HLD	39
T_NUM_SLD	27
T_NUM_ALL	442
T_JUDGE_TAP	376
T_JUDGE_HLD	137
T_JUDGE_SLD	27
T_JUDGE_ALL	540
TTM_EACHPAIRS	117
TTM_SCR_TAP	181000
TTM_SCR_BRK	36400
TTM_SCR_HLD	39000
TTM_SCR_SLD	40500
TTM_SCR_ALL	296900
TTM_SCR_S	286650
TTM_SCR_SS	295500
TTM_RAT_ACV	10047

