VERSION	0.00.00	1.03.00
FES_MODE	0
BPM_DEF	180.000	180.000	180.000	180.000
MET_DEF	4	4
RESOLUTION	384
CLK_DEF	384
COMPATIBLE_CODE	MA2

BPM	0	0	180.000
MET	0	0	4	4

TAP	2	0	0
TAP	2	192	0
TAP	3	0	1
TAP	3	192	1
TAP	4	0	2
TAP	4	193	2
TAP	5	0	3
TAP	5	192	3
TAP	6	0	4
TAP	6	192	4
TAP	7	0	5
TAP	7	192	5
TAP	8	0	6
TAP	8	192	6
BRK	9	0	7
STR	10	0	0
SI_	10	0	0	96	192	3
STR	11	0	4
SI_	11	0	4	96	192	7
STR	12	0	1
SI_	12	0	1	96	192	6
STR	13	0	5
SI_	13	0	5	96	192	2
STR	14	0	0
SCR	14	0	0	96	192	3
STR	15	0	4
SCR	15	0	4	96	192	7
STR	16	0	0
SCR	16	0	0	96	192	3
STR	17	0	4
SCR	17	0	4	96	192	7
TAP	18	0	7
TAP	18	96	7
TAP	18	192	6
TAP	18	288	6
TAP	19	0	5
TAP	19	96	5
TAP	19	192	4
TAP	20	0	0
TAP	20	96	0
TAP	20	192	1
TAP	20	288	1
TAP	21	0	2
TAP	21	96	2
TAP	21	192	3
TAP	22	0	4
TAP	22	96	4
TAP	22	192	5
TAP	22	288	5
TAP	23	0	6
TAP	23	96	6
TAP	23	192	7
TAP	24	0	2
TAP	24	96	2
TAP	24	192	1
TAP	24	288	1
BRK	25	0	0
HLD	26	0	2	384
HLD	27	0	3	384
HLD	28	0	4	384
TAP	29	0	5
HLD	30	0	5	384
HLD	31	0	4	384
HLD	32	0	3	384
TAP	33	0	2
TAP	34	0	5
TAP	34	96	5
TAP	34	192	4
TAP	34	192	5
TAP	35	0	2
TAP	35	96	2
TAP	35	192	2
TAP	35	192	3
TAP	36	0	4
TAP	36	96	5
TAP	36	192	4
TAP	36	192	5
TAP	37	0	3
TAP	37	96	2
TAP	37	192	2
TAP	37	192	3
TAP	38	0	1
TAP	38	96	1
TAP	38	192	0
TAP	38	192	1
TAP	39	0	6
TAP	39	96	6
TAP	39	192	6
TAP	39	192	7
TAP	40	0	0
TAP	40	96	1
TAP	40	192	0
TAP	40	192	1
TAP	41	0	7
TAP	41	96	6
TAP	41	192	6
TAP	41	192	7
TAP	42	0	1
TAP	42	96	1
TAP	42	192	2
TAP	42	192	3
TAP	43	0	6
TAP	43	96	6
TAP	43	192	4
TAP	43	192	5
TAP	44	0	0
TAP	44	96	1
TAP	44	192	2
TAP	44	192	3
TAP	45	0	7
TAP	45	96	6
TAP	45	192	4
TAP	45	192	5
STR	46	0	3
SCL	46	0	3	96	192	0
STR	47	0	7
SCL	47	0	7	96	192	4
STR	48	0	3
SUL	48	0	3	96	480	0
TAP	50	0	7
TAP	50	96	7
TAP	50	192	6
TAP	50	288	6
TAP	51	0	5
TAP	51	96	5
TAP	51	192	4
TAP	51	192	5
TAP	52	0	3
TAP	52	96	3
TAP	52	192	2
TAP	52	288	2
TAP	53	0	1
TAP	53	96	1
TAP	53	192	0
TAP	53	192	1
TAP	54	0	0
TAP	54	96	0
TAP	54	192	1
TAP	54	288	1
TAP	55	0	2
TAP	55	96	2
TAP	55	192	2
TAP	55	192	3
TAP	56	0	4
TAP	56	96	4
TAP	56	192	5
TAP	56	288	5
TAP	57	0	6
TAP	57	96	6
BRK	57	192	6
BRK	57	192	7
TAP	58	0	4
TAP	58	96	5
TAP	58	192	6
TAP	58	288	7
TAP	59	0	0
TAP	59	96	1
TAP	59	192	2
TAP	59	192	3
TAP	60	0	3
TAP	60	96	2
TAP	60	192	1
TAP	60	288	0
TAP	61	0	7
TAP	61	96	6
TAP	61	192	4
TAP	61	192	5
TAP	62	0	7
TAP	62	96	6
TAP	62	192	5
TAP	62	288	4
TAP	63	0	3
TAP	63	96	2
TAP	63	192	0
TAP	63	192	1
TAP	64	0	0
TAP	64	96	1
TAP	64	192	2
TAP	64	288	3
TAP	65	0	4
TAP	65	96	5
TAP	65	192	6
TAP	65	192	7
TAP	66	0	4
TAP	66	0	5
TAP	66	192	2
TAP	66	192	3
TAP	67	0	4
TAP	67	0	5
TAP	67	96	4
TAP	67	96	5
TAP	67	192	3
TAP	67	192	6
TAP	68	0	2
TAP	68	0	3
TAP	68	192	4
TAP	68	192	5
TAP	69	0	2
TAP	69	0	3
TAP	69	96	2
TAP	69	96	3
TAP	69	192	1
TAP	69	192	4
TAP	70	0	0
TAP	70	96	0
TAP	70	192	6
TAP	70	288	6
TAP	71	0	4
TAP	71	96	4
TAP	71	192	2
TAP	71	288	2
TAP	72	0	0
TAP	72	96	0
TAP	72	192	2
TAP	72	288	2
TAP	73	0	4
TAP	73	96	4
TAP	73	192	6
TAP	73	288	6
TAP	74	0	7
TAP	74	96	7
TAP	74	192	1
TAP	74	288	1
TAP	75	0	3
TAP	75	96	3
TAP	75	192	5
TAP	75	288	5
TAP	76	0	3
TAP	76	96	3
TAP	76	192	1
TAP	76	288	1
TAP	77	0	7
TAP	77	96	7
TAP	77	192	0
TAP	77	192	7
TAP	78	0	5
TAP	78	96	5
TAP	78	192	4
TAP	78	192	5
TAP	78	288	4
TAP	78	288	5
TAP	79	0	2
TAP	79	96	2
TAP	79	192	2
TAP	79	192	3
TAP	79	288	2
TAP	79	288	3
TAP	80	0	5
TAP	80	96	5
TAP	80	192	4
TAP	80	192	5
TAP	80	288	4
TAP	80	288	5
TAP	81	0	2
TAP	81	96	2
TAP	81	192	2
TAP	81	192	3
TAP	81	288	2
TAP	81	288	3
TAP	82	0	1
TAP	82	96	1
TAP	82	192	0
TAP	82	192	1
TAP	82	288	0
TAP	82	288	1
TAP	83	0	6
TAP	83	96	6
TAP	83	192	6
TAP	83	192	7
TAP	83	288	6
TAP	83	288	7
TAP	84	0	1
TAP	84	96	1
TAP	84	192	0
TAP	84	192	1
TAP	84	288	0
TAP	84	288	1
TAP	85	0	6
TAP	85	0	7
TAP	85	96	0
TAP	85	96	7
TAP	85	192	0
TAP	85	192	1
TAP	86	0	6
TAP	86	0	7
TAP	86	192	0
TAP	86	192	1
TAP	87	0	6
TAP	87	0	7
TAP	87	96	6
TAP	87	96	7
TAP	87	192	0
TAP	87	192	5
TAP	88	0	0
TAP	88	0	1
TAP	88	192	6
TAP	88	192	7
TAP	89	0	0
TAP	89	0	1
TAP	89	96	0
TAP	89	96	1
TAP	89	192	2
TAP	89	192	7
BRK	90	0	1
BRK	90	0	6

T_REC_TAP	271
T_REC_BRK	6
T_REC_XTP	0
T_REC_HLD	6
T_REC_XHO	0
T_REC_STR	11
T_REC_BST	0
T_REC_XST	0
T_REC_TTP	0
T_REC_THO	0
T_REC_SLD	11
T_REC_ALL	305
T_NUM_TAP	282
T_NUM_BRK	6
T_NUM_HLD	6
T_NUM_SLD	11
T_NUM_ALL	305
T_JUDGE_TAP	288
T_JUDGE_HLD	48
T_JUDGE_SLD	11
T_JUDGE_ALL	347
TTM_EACHPAIRS	59
TTM_SCR_TAP	141000
TTM_SCR_BRK	15600
TTM_SCR_HLD	6000
TTM_SCR_SLD	16500
TTM_SCR_ALL	179100
TTM_SCR_S	173150
TTM_SCR_SS	178500
TTM_RAT_ACV	10033

