VERSION	0.00.00	1.03.00
FES_MODE	0
BPM_DEF	180.000	180.000	180.000	180.000
MET_DEF	4	4
RESOLUTION	384
CLK_DEF	384
COMPATIBLE_CODE	MA2

BPM	0	0	180.000
MET	0	0	4	4

TAP	10	0	3
TAP	11	0	3
TAP	12	0	2
TAP	13	0	2
TAP	14	0	1
TAP	15	0	1
TAP	16	0	0
TAP	16	192	0
TAP	17	0	0
TAP	17	0	7
TAP	17	192	0
TAP	17	192	7
TAP	18	0	1
TAP	18	192	1
TAP	19	0	2
TAP	19	192	2
TAP	20	0	3
TAP	20	192	3
TAP	21	0	3
TAP	21	0	4
TAP	22	0	5
TAP	22	192	5
TAP	23	0	6
TAP	23	192	6
TAP	24	0	7
TAP	24	192	7
BRK	25	0	0
BRK	25	0	7
HLD	26	0	2	384
HLD	28	0	3	384
HLD	30	0	5	384
HLD	32	0	4	384
TAP	34	0	3
TAP	34	192	3
TAP	35	0	2
TAP	36	0	4
TAP	36	192	4
TAP	37	0	5
TAP	38	0	6
TAP	38	192	6
TAP	39	0	7
TAP	40	0	1
TAP	40	192	1
TAP	41	0	0
TAP	42	0	0
TAP	42	0	1
TAP	42	192	7
TAP	43	0	6
TAP	44	0	4
TAP	44	0	5
TAP	44	192	3
TAP	45	0	2
TAP	46	0	0
TAP	46	192	1
TAP	47	0	2
TAP	47	192	3
STR	48	0	4
SI_	48	0	4	96	288	7
TAP	50	0	0
TAP	50	96	0
TAP	50	192	0
TAP	51	0	1
TAP	51	96	1
TAP	51	192	1
TAP	52	0	2
TAP	52	96	2
TAP	52	192	2
TAP	53	0	3
TAP	53	96	3
TAP	53	192	3
TAP	54	0	4
TAP	54	96	4
TAP	54	192	4
TAP	55	0	5
TAP	55	96	5
TAP	55	192	5
TAP	56	0	6
TAP	56	0	7
TAP	56	192	0
TAP	56	192	7
TAP	57	0	0
TAP	57	0	1
TAP	57	96	0
TAP	57	96	1
TAP	57	192	0
TAP	57	192	1
TAP	58	0	7
TAP	58	96	7
TAP	58	192	7
TAP	59	0	6
TAP	59	96	6
TAP	59	192	6
TAP	60	0	5
TAP	60	96	5
TAP	60	192	5
TAP	61	0	4
TAP	61	96	4
TAP	61	192	4
TAP	62	0	3
TAP	62	96	3
TAP	62	192	3
TAP	63	0	2
TAP	63	96	2
TAP	63	192	2
TAP	64	0	0
TAP	64	0	1
TAP	64	192	0
TAP	64	192	7
TAP	65	0	6
TAP	65	0	7
TAP	65	96	6
TAP	65	96	7
TAP	65	192	6
TAP	65	192	7
HLD	66	0	0	192
HLD	66	0	1	192
HLD	67	0	2	192
HLD	67	0	3	192
HLD	68	0	4	192
HLD	68	0	5	192
HLD	69	0	6	192
HLD	69	0	7	192
TAP	70	0	1
TAP	70	0	6
TAP	70	192	1
TAP	71	0	2
TAP	71	192	2
TAP	72	0	3
TAP	72	192	3
TAP	73	0	4
TAP	73	192	4
TAP	74	0	5
TAP	74	192	5
TAP	75	0	6
TAP	75	192	6
TAP	76	0	7
TAP	76	192	7
TAP	77	0	0
TAP	77	0	7
TAP	77	96	0
TAP	77	96	7
TAP	77	192	0
TAP	77	192	7
TAP	78	0	6
TAP	78	192	6
TAP	79	0	5
TAP	79	192	5
TAP	80	0	4
TAP	80	192	4
TAP	81	0	3
TAP	81	192	3
TAP	82	0	2
TAP	82	192	2
TAP	83	0	1
TAP	83	192	1
TAP	84	0	0
TAP	84	192	0
TAP	85	0	0
TAP	85	0	7
TAP	85	96	0
TAP	85	96	7
TAP	85	192	0
TAP	85	192	7
TAP	86	0	6
TAP	86	0	7
TAP	86	192	6
TAP	86	192	7
TAP	87	0	0
TAP	87	0	1
TAP	87	192	0
TAP	87	192	1
TAP	88	0	2
TAP	88	0	3
TAP	88	192	2
TAP	88	192	3
TAP	89	0	4
TAP	89	0	5
TAP	89	192	4
TAP	89	192	5
BRK	90	0	6
BRK	90	0	7

T_REC_TAP	163
T_REC_BRK	4
T_REC_XTP	0
T_REC_HLD	12
T_REC_XHO	0
T_REC_STR	1
T_REC_BST	0
T_REC_XST	0
T_REC_TTP	0
T_REC_THO	0
T_REC_SLD	1
T_REC_ALL	181
T_NUM_TAP	164
T_NUM_BRK	4
T_NUM_HLD	12
T_NUM_SLD	1
T_NUM_ALL	181
T_JUDGE_TAP	168
T_JUDGE_HLD	64
T_JUDGE_SLD	1
T_JUDGE_ALL	233
TTM_EACHPAIRS	36
TTM_SCR_TAP	82000
TTM_SCR_BRK	10400
TTM_SCR_HLD	12000
TTM_SCR_SLD	1500
TTM_SCR_ALL	105900
TTM_SCR_S	102350
TTM_SCR_SS	105500
TTM_RAT_ACV	10037

