VERSION	0.00.00	1.03.00
FES_MODE	0
BPM_DEF	140.000	140.000	140.000	140.000
MET_DEF	4	4
RESOLUTION	384
CLK_DEF	384
COMPATIBLE_CODE	MA2

BPM	0	0	140.000
MET	0	0	4	4

STR	1	0	3
SCL	1	0	3	96	48	1
STR	1	96	7
SCL	1	96	7	96	48	5
STR	1	192	1
SCL	1	192	1	96	48	7
STR	1	288	5
SCL	1	288	5	96	48	3
TAP	2	0	1
TAP	2	96	3
TAP	2	192	5
TAP	2	288	7
STR	3	0	7
SCL	3	0	7	96	48	4
STR	3	96	3
SCL	3	96	3	96	48	0
STR	3	192	5
SCL	3	192	5	96	48	2
STR	3	288	1
SCL	3	288	1	96	48	6
TAP	4	0	5
TAP	4	96	2
TAP	4	192	3
TAP	4	192	4
TAP	4	240	3
TAP	4	264	4
TAP	4	312	0
TAP	4	312	1
TAP	4	360	6
TAP	4	360	7
TAP	5	96	1
TAP	5	96	4
TAP	5	192	3
TAP	5	192	6
TAP	5	288	0
TAP	5	288	7
STR	6	0	3
SI_	6	0	3	96	48	6
STR	6	96	4
SI_	6	96	4	96	48	1
STR	6	192	3
SI_	6	192	3	96	48	7
STR	6	288	4
SI_	6	288	4	96	48	0
TAP	7	0	3
TAP	7	96	0
TAP	7	96	5
TAP	7	192	2
TAP	7	192	7
TAP	7	288	3
TAP	7	288	4
TAP	8	0	6
TAP	8	0	7
TAP	8	48	0
TAP	8	48	1
TAP	8	96	2
TAP	8	96	3
TAP	8	144	4
TAP	8	144	5
STR	8	192	0
SI_	8	192	0	96	48	3
STR	8	192	7
SI_	8	192	7	96	48	4
BRK	8	288	0
BRK	8	288	7
TAP	9	0	0
TAP	9	48	1
TAP	9	96	2
TAP	9	144	3
HLD	9	192	4	72
HLD	9	264	5	72
TAP	9	336	6
TAP	10	0	7
TAP	10	48	6
TAP	10	96	5
TAP	10	144	4
HLD	10	192	3	72
HLD	10	264	2	72
TAP	10	336	1
TAP	11	0	0
TAP	11	0	7
TAP	11	48	6
TAP	11	96	0
TAP	11	96	7
TAP	11	144	1
HLD	11	192	2	72
HLD	11	264	4	72
TAP	11	336	6
TAP	12	0	0
TAP	12	48	2
TAP	12	96	4
TAP	12	144	6
STR	12	192	0
SI_	12	192	0	96	48	4
TAP	12	288	0
TAP	13	0	3
TAP	13	0	5
TAP	13	48	4
TAP	13	96	5
TAP	13	144	6
HLD	13	192	7	72
HLD	13	264	1	72
TAP	13	336	3
TAP	14	0	2
TAP	14	0	4
TAP	14	48	3
TAP	14	96	2
TAP	14	144	1
HLD	14	192	0	72
HLD	14	264	6	72
TAP	14	336	4
TAP	15	0	3
TAP	15	0	6
TAP	15	48	5
TAP	15	96	1
TAP	15	96	4
TAP	15	144	2
HLD	15	192	5	72
HLD	15	264	3	72
TAP	15	336	2
TAP	16	0	0
TAP	16	0	1
TAP	16	48	6
TAP	16	48	7
TAP	16	96	4
TAP	16	96	5
TAP	16	144	2
TAP	16	144	3
STR	16	192	0
SI_	16	192	0	96	48	4
STR	16	192	7
SI_	16	192	7	96	48	3
BRK	16	288	0
BRK	16	288	7
HLD	17	0	1	96
TAP	17	48	4
HLD	17	96	4	96
TAP	17	144	1
HLD	17	192	1	72
HLD	17	264	7	72
TAP	17	336	0
HLD	18	0	6	96
TAP	18	48	3
HLD	18	96	3	96
TAP	18	144	6
HLD	18	192	6	72
HLD	18	264	0	72
TAP	18	336	7
HLD	19	0	2	96
TAP	19	48	5
HLD	19	96	5	96
TAP	19	144	2
HLD	19	192	2	72
HLD	19	264	1	72
TAP	19	336	0
TAP	20	0	7
TAP	20	48	5
TAP	20	96	3
TAP	20	144	1
STR	20	192	7
SI_	20	192	7	96	48	3
TAP	20	288	7
HLD	21	0	1	96
TAP	21	48	2
HLD	21	96	5	96
TAP	21	144	4
HLD	21	192	6	72
HLD	21	264	7	72
TAP	21	336	1
HLD	22	0	6	96
TAP	22	48	5
HLD	22	96	2	96
TAP	22	144	3
HLD	22	192	1	72
HLD	22	264	0	72
TAP	22	336	6
HLD	23	0	1	96
TAP	23	48	2
HLD	23	96	6	96
TAP	23	144	5
HLD	23	192	4	72
HLD	23	264	2	72
TAP	23	336	0
TAP	24	0	6
TAP	24	48	4
TAP	24	96	2
TAP	24	144	0
HLD	24	192	6	96
STR	24	288	1
SI_	24	288	1	96	48	4
STR	24	360	6
SCR	24	360	6	96	96	3
HLD	25	192	1	96
STR	25	288	6
SI_	25	288	6	96	48	3
STR	25	360	1
SCL	25	360	1	96	96	4
HLD	26	192	7	96
STR	26	288	4
SCL	26	288	4	96	72	0
STR	26	360	7
SI_	26	360	7	96	48	3
TAP	27	144	0
TAP	27	192	2
TAP	27	240	0
TAP	27	264	1
TAP	27	312	7
TAP	27	360	5
TAP	28	24	7
TAP	28	48	6
HLD	28	192	1	96
STR	28	288	6
SI_	28	288	6	96	48	3
STR	28	360	1
SUR	28	360	1	96	96	4
HLD	29	192	6	96
STR	29	288	1
SI_	29	288	1	96	48	4
STR	29	360	6
SUL	29	360	6	96	96	3
HLD	30	192	0	96
STR	30	288	3
SCR	30	288	3	96	72	7
STR	30	360	0
SI_	30	360	0	96	48	4
TAP	31	144	7
TAP	31	192	0
TAP	31	240	0
TAP	31	240	7
TAP	31	264	0
TAP	31	264	7
TAP	31	312	1
TAP	31	312	6
STR	31	360	2
SUR	31	360	2	96	216	5
TAP	31	360	5
TAP	32	96	6
TAP	32	192	7
TAP	32	288	0
TAP	33	0	3
TAP	33	0	7
TAP	33	48	2
TAP	33	48	6
TAP	33	96	1
TAP	33	96	5
TAP	33	144	0
TAP	33	144	4
STR	33	192	3
SI_	33	192	3	96	48	6
STR	33	192	7
SI_	33	192	7	96	48	2
BRK	33	288	3
BRK	33	288	7
STR	34	0	1
SI_	34	0	1	96	48	4
TAP	34	48	0
STR	34	96	6
SI_	34	96	6	96	48	3
TAP	34	144	7
TAP	34	192	0
TAP	34	240	2
TAP	34	264	3
TAP	34	312	3
TAP	34	336	2
TAP	35	0	0
TAP	35	0	1
TAP	35	48	6
TAP	35	48	7
TAP	35	96	5
TAP	35	120	4
HLD	35	168	2	72
TAP	35	168	3
TAP	35	240	1
TAP	35	288	0
TAP	35	288	7
TAP	36	0	6
TAP	36	0	7
TAP	36	48	0
TAP	36	48	5
TAP	36	96	6
TAP	36	96	7
TAP	36	120	0
TAP	36	120	5
TAP	36	144	1
TAP	36	144	4
TAP	36	192	2
TAP	36	192	3
TAP	36	240	5
TAP	36	264	4
TAP	36	312	6
TAP	36	336	7
TAP	37	0	4
TAP	37	0	5
TAP	37	48	2
TAP	37	48	3
TAP	37	96	0
TAP	37	96	1
HLD	37	144	6	96
TAP	37	144	7
TAP	37	240	5
TAP	37	288	0
TAP	37	288	7
STR	38	0	6
SCL	38	0	6	96	48	3
TAP	38	48	7
STR	38	96	1
SCR	38	96	1	96	48	4
TAP	38	144	0
TAP	38	192	7
TAP	38	240	5
TAP	38	264	4
TAP	38	312	4
TAP	38	336	5
TAP	39	0	6
TAP	39	0	7
TAP	39	48	0
TAP	39	48	1
TAP	39	96	2
TAP	39	120	3
TAP	39	168	4
HLD	39	168	5	72
TAP	39	240	6
TAP	39	288	0
TAP	39	288	7
TAP	40	0	0
TAP	40	0	1
TAP	40	48	2
TAP	40	48	7
TAP	40	96	0
TAP	40	96	1
TAP	40	120	2
TAP	40	120	7
TAP	40	144	3
TAP	40	144	6
TAP	40	192	4
TAP	40	192	5
TAP	40	240	2
TAP	40	264	3
TAP	40	312	1
TAP	40	336	0
TAP	41	0	2
TAP	41	0	3
TAP	41	48	4
TAP	41	48	5
TAP	41	96	6
TAP	41	96	7
TAP	41	144	0
HLD	41	144	1	96
TAP	41	240	2
TAP	41	288	0
TAP	41	288	7
TAP	41	336	0
TAP	41	336	7
TAP	42	0	1
TAP	42	0	3
TAP	42	72	4
TAP	42	72	6
TAP	42	144	2
TAP	42	144	5
TAP	42	240	2
TAP	42	240	6
TAP	42	288	1
TAP	42	288	5
TAP	43	0	0
TAP	43	0	4
TAP	43	48	1
TAP	43	48	5
TAP	43	96	2
TAP	43	96	6
TAP	43	144	3
TAP	43	144	7
STR	43	192	0
SI_	43	192	0	96	48	5
STR	43	192	4
SI_	43	192	4	96	48	1
BRK	43	288	0
BRK	43	288	4
HLD	44	0	6	48
HLD	44	48	2	48
HLD	44	96	7	48
TAP	44	144	3
TAP	44	240	4
TAP	44	240	5
TAP	44	288	2
TAP	44	288	3
TAP	44	336	2
TAP	44	360	3
TAP	45	24	5
TAP	45	48	4
TAP	45	96	3
TAP	45	96	4
TAP	45	144	3
TAP	45	144	4
TAP	45	192	5
TAP	45	216	4
TAP	45	240	5
TAP	45	288	2
TAP	45	312	3
TAP	45	336	2
TAP	46	48	5
TAP	46	64	4
TAP	46	80	3
TAP	46	96	2
TAP	46	192	1
TAP	46	192	6
TAP	46	240	5
TAP	46	264	4
TAP	46	288	6
TAP	46	336	2
TAP	46	360	3
TAP	47	0	1
TAP	47	48	2
TAP	47	64	3
TAP	47	80	4
TAP	47	96	5
TAP	47	144	7
TAP	47	168	0
TAP	47	192	7
TAP	47	240	1
TAP	47	264	6
TAP	47	312	2
TAP	47	312	4
TAP	47	360	3
TAP	47	360	5
HLD	48	48	2	48
HLD	48	96	3	48
HLD	48	144	4	48
TAP	48	192	5
TAP	48	240	1
TAP	48	264	0
TAP	48	288	2
TAP	48	336	6
TAP	48	360	7
TAP	49	0	5
TAP	49	48	0
TAP	49	72	7
TAP	49	96	1
TAP	49	120	6
TAP	49	144	2
TAP	49	168	5
TAP	49	192	3
TAP	49	216	4
TAP	49	240	2
TAP	49	264	5
TAP	49	288	1
TAP	49	312	6
TAP	49	336	0
TAP	50	48	2
TAP	50	64	3
TAP	50	80	4
TAP	50	96	5
TAP	50	192	6
TAP	50	208	5
TAP	50	224	4
TAP	50	240	3
TAP	50	256	2
TAP	50	272	1
TAP	50	288	0
TAP	50	288	7
TAP	50	336	0
TAP	50	336	7
TAP	51	0	3
TAP	51	0	4
TAP	51	48	0
TAP	51	48	1
TAP	51	96	3
TAP	51	96	4
TAP	51	144	6
TAP	51	144	7
STR	51	192	3
SI_	51	192	3	96	48	1
STR	51	192	4
SI_	51	192	4	96	48	6
BRK	51	288	3
BRK	51	288	4
STR	52	0	1
SI_	52	0	1	96	48	4
STR	52	96	0
SI_	52	96	0	96	48	5
TAP	52	192	1
TAP	52	240	2
TAP	52	264	3
TAP	52	312	3
TAP	52	336	4
STR	53	0	6
SI_	53	0	6	96	48	3
STR	53	96	7
SI_	53	96	7	96	48	2
TAP	53	192	6
TAP	53	240	5
TAP	53	264	4
TAP	53	312	4
TAP	53	336	3
STR	54	0	7
SI_	54	0	7	96	48	3
STR	54	96	0
SI_	54	96	0	96	48	4
TAP	54	192	7
TAP	54	240	5
TAP	54	264	5
TAP	54	312	2
TAP	54	336	2
HLD	55	0	1	48
HLD	55	48	2	48
HLD	55	96	3	48
HLD	55	144	4	48
HLD	55	192	5	48
TAP	55	240	7
TAP	55	288	7
STR	56	0	6
SI_	56	0	6	96	48	2
STR	56	96	0
SI_	56	96	0	96	48	4
TAP	56	192	0
TAP	56	240	6
TAP	56	264	6
TAP	56	312	2
TAP	56	336	3
STR	57	0	1
SI_	57	0	1	96	48	5
STR	57	96	7
SI_	57	96	7	96	48	3
TAP	57	192	7
TAP	57	240	1
TAP	57	264	1
TAP	57	312	5
TAP	57	336	4
STR	58	0	0
SI_	58	0	0	96	48	3
STR	58	0	7
SI_	58	0	7	96	48	4
TAP	58	96	0
TAP	58	96	7
TAP	58	192	1
TAP	58	192	6
TAP	58	240	2
TAP	58	240	3
TAP	58	264	2
TAP	58	264	3
TAP	58	312	4
TAP	58	312	5
TAP	58	336	4
TAP	58	336	5
HLD	59	0	6	48
HLD	59	48	5	48
HLD	59	96	4	48
HLD	59	144	3	48
HLD	59	192	2	48
TAP	59	240	0
TAP	59	288	0
TAP	60	0	2
TAP	60	48	6
TAP	60	48	7
TAP	60	96	5
TAP	60	144	0
TAP	60	144	1
STR	60	192	0
SI_	60	192	0	96	48	5
STR	60	192	7
SI_	60	192	7	96	48	2
BRK	60	288	0
BRK	60	288	7
BRK	61	0	1
BRK	61	0	6
BRK	61	48	0
BRK	61	48	4
BRK	61	96	1
BRK	61	96	6
BRK	61	144	3
BRK	61	144	7
BRK	61	192	1
BRK	61	192	6
BRK	61	288	0
BRK	61	288	7
STR	62	0	0
SI_	62	0	0	96	48	4
STR	62	48	7
SI_	62	48	7	96	48	3
TAP	62	96	0
TAP	62	144	7
TAP	62	192	1
TAP	62	240	2
TAP	62	264	2
TAP	62	288	5
TAP	62	312	4
TAP	62	336	5
TAP	63	0	1
TAP	63	48	7
STR	63	96	0
SI_	63	96	0	96	48	4
TAP	63	120	1
TAP	63	120	7
TAP	63	240	5
TAP	63	288	6
TAP	63	288	7
TAP	64	0	2
TAP	64	0	7
TAP	64	24	1
TAP	64	24	6
TAP	64	48	0
TAP	64	48	5
TAP	64	96	0
TAP	64	96	5
TAP	64	120	1
TAP	64	120	6
TAP	64	144	2
TAP	64	144	7
TAP	64	192	3
TAP	64	192	4
TAP	64	240	2
TAP	64	264	3
TAP	64	288	2
TAP	64	336	4
STR	65	0	2
SCL	65	0	2	96	48	7
STR	65	48	7
SI_	65	48	7	96	48	3
STR	65	96	3
SCR	65	96	3	96	48	6
TAP	65	144	6
TAP	65	240	0
TAP	65	288	1
TAP	65	336	2
STR	66	0	7
SI_	66	0	7	96	48	3
STR	66	48	0
SI_	66	48	0	96	48	4
TAP	66	96	7
TAP	66	144	0
TAP	66	192	6
TAP	66	240	5
TAP	66	264	5
TAP	66	288	2
TAP	66	312	3
TAP	66	336	2
TAP	67	0	6
TAP	67	48	0
STR	67	96	7
SI_	67	96	7	96	48	3
TAP	67	120	0
TAP	67	120	6
TAP	67	240	2
TAP	67	288	0
TAP	67	288	1
TAP	68	0	0
TAP	68	0	5
TAP	68	24	1
TAP	68	24	6
TAP	68	48	2
TAP	68	48	7
TAP	68	96	2
TAP	68	96	7
TAP	68	120	1
TAP	68	120	6
TAP	68	144	0
TAP	68	144	5
TAP	68	192	3
TAP	68	192	4
TAP	68	240	5
TAP	68	264	4
TAP	68	288	5
TAP	68	336	3
STR	69	0	5
SCR	69	0	5	96	48	0
STR	69	48	0
SI_	69	48	0	96	48	4
STR	69	96	4
SCL	69	96	4	96	48	1
TAP	69	144	1
TAP	69	240	7
TAP	69	288	6
TAP	69	336	5
TAP	70	0	0
TAP	70	0	7
TAP	70	48	1
TAP	70	72	3
TAP	70	120	6
TAP	70	144	4
TAP	70	192	3
TAP	70	216	4
TAP	70	240	3
TAP	70	264	4
TAP	70	288	2
TAP	70	288	6
TAP	70	336	1
TAP	70	336	5
TAP	71	0	0
TAP	71	0	4
TAP	71	48	2
TAP	71	48	5
TAP	71	96	3
TAP	71	96	7
TAP	71	144	2
TAP	71	144	5
STR	71	192	0
SCL	71	192	0	96	48	5
STR	71	192	4
SCL	71	192	4	96	48	1
BRK	71	288	0
BRK	71	288	4
TAP	72	0	3
TAP	72	24	4
TAP	72	48	3
TAP	72	72	4
TAP	72	120	3
TAP	72	120	6
TAP	72	168	5
TAP	72	192	4
TAP	72	240	1
TAP	72	240	4
TAP	72	288	2
TAP	72	312	3
TAP	72	360	0
TAP	72	360	7

T_REC_TAP	488
T_REC_BRK	26
T_REC_XTP	0
T_REC_HLD	62
T_REC_XHO	0
T_REC_STR	69
T_REC_BST	0
T_REC_XST	0
T_REC_TTP	0
T_REC_THO	0
T_REC_SLD	69
T_REC_ALL	714
T_NUM_TAP	557
T_NUM_BRK	26
T_NUM_HLD	62
T_NUM_SLD	69
T_NUM_ALL	714
T_JUDGE_TAP	583
T_JUDGE_HLD	108
T_JUDGE_SLD	69
T_JUDGE_ALL	760
TTM_EACHPAIRS	141
TTM_SCR_TAP	278500
TTM_SCR_BRK	67600
TTM_SCR_HLD	62000
TTM_SCR_SLD	103500
TTM_SCR_ALL	511600
TTM_SCR_S	493750
TTM_SCR_SS	509000
TTM_RAT_ACV	10051

