VERSION	0.00.00	1.03.00
FES_MODE	0
BPM_DEF	140.000	140.000	140.000	140.000
MET_DEF	4	4
RESOLUTION	384
CLK_DEF	384
COMPATIBLE_CODE	MA2

BPM	0	0	140.000
MET	0	0	4	4

HLD	1	0	5	384
TAP	1	96	4
TAP	1	288	4
HLD	2	0	2	384
TAP	2	96	3
TAP	2	288	3
HLD	3	0	5	384
TAP	3	96	4
TAP	3	288	4
HLD	4	0	2	96
TAP	4	96	3
TAP	4	192	1
TAP	4	192	6
TAP	4	240	0
TAP	4	240	7
TAP	4	264	0
TAP	4	264	7
TAP	4	312	1
TAP	4	312	6
TAP	4	360	2
TAP	4	360	5
TAP	5	96	4
TAP	5	96	6
TAP	5	192	2
TAP	5	288	1
TAP	5	288	3
TAP	6	0	5
TAP	6	96	4
TAP	6	96	6
TAP	6	192	2
TAP	6	240	3
TAP	6	288	1
TAP	6	288	3
TAP	7	0	5
TAP	7	96	4
TAP	7	96	6
TAP	7	192	2
TAP	7	288	1
TAP	7	288	3
TAP	8	0	4
TAP	8	0	5
TAP	8	48	3
TAP	8	96	2
TAP	8	96	3
TAP	8	144	4
TAP	8	192	3
TAP	8	192	4
BRK	8	288	1
BRK	8	288	6
TAP	9	0	5
TAP	9	48	5
TAP	9	96	4
TAP	9	192	2
TAP	9	192	3
TAP	9	288	1
TAP	9	288	4
TAP	10	0	2
TAP	10	48	2
TAP	10	96	3
TAP	10	192	4
TAP	10	192	5
TAP	10	288	3
TAP	10	288	6
TAP	11	0	5
TAP	11	48	5
TAP	11	96	4
TAP	11	192	2
TAP	11	192	3
TAP	11	288	1
TAP	11	288	4
STR	12	0	2
SCL	12	0	2	96	48	7
STR	12	192	6
SCL	12	192	6	96	48	3
TAP	13	0	1
TAP	13	48	1
TAP	13	96	3
TAP	13	192	4
TAP	13	192	5
TAP	13	288	3
TAP	13	288	7
TAP	14	0	6
TAP	14	48	6
TAP	14	96	4
TAP	14	192	2
TAP	14	192	3
TAP	14	288	0
TAP	14	288	4
TAP	15	0	1
TAP	15	48	1
TAP	15	96	3
TAP	15	192	4
TAP	15	192	5
TAP	15	288	3
TAP	15	288	7
TAP	16	0	2
TAP	16	0	3
TAP	16	48	4
TAP	16	96	4
TAP	16	96	5
TAP	16	144	3
TAP	16	192	3
TAP	16	192	4
BRK	16	288	1
BRK	16	288	6
TAP	17	0	7
TAP	17	48	6
TAP	17	96	4
HLD	17	192	2	96
TAP	17	288	3
TAP	18	0	0
TAP	18	48	1
TAP	18	96	3
HLD	18	192	5	96
TAP	18	288	4
TAP	19	0	7
TAP	19	48	6
TAP	19	96	4
HLD	19	192	2	96
TAP	19	288	3
STR	20	0	1
SUR	20	0	1	96	192	4
TAP	21	0	0
TAP	21	48	1
TAP	21	96	3
HLD	21	192	6	96
TAP	21	288	5
TAP	22	0	7
TAP	22	48	6
TAP	22	96	4
HLD	22	192	1	96
TAP	22	288	2
TAP	23	0	0
TAP	23	48	1
TAP	23	96	3
TAP	23	192	3
TAP	23	192	4
STR	23	288	0
SCR	23	288	0	96	96	3
STR	23	288	7
SCL	23	288	7	96	96	4
HLD	24	192	1	96
STR	24	288	0
SCL	24	288	0	96	96	4
HLD	25	192	6	96
STR	25	288	7
SCR	25	288	7	96	96	3
HLD	26	192	1	96
STR	26	288	0
SCL	26	288	0	96	96	4
TAP	27	192	2
TAP	27	192	4
TAP	27	288	3
TAP	27	288	5
TAP	28	0	4
TAP	28	48	3
TAP	28	96	2
TAP	28	96	5
HLD	28	192	5	96
STR	28	288	4
SCL	28	288	4	96	96	7
HLD	29	192	2	96
STR	29	288	3
SCR	29	288	3	96	96	0
HLD	30	192	5	96
STR	30	288	4
SCL	30	288	4	96	96	7
HLD	31	192	2	96
STR	31	288	3
SUR	31	288	3	96	144	6
TAP	32	288	2
TAP	32	288	5
TAP	33	0	4
TAP	33	0	5
TAP	33	48	3
TAP	33	96	2
TAP	33	96	3
TAP	33	144	4
TAP	33	192	3
TAP	33	192	4
BRK	33	288	1
BRK	33	288	6
TAP	34	0	7
TAP	34	48	5
TAP	34	96	4
TAP	34	192	0
TAP	34	240	2
TAP	34	288	3
TAP	35	0	7
TAP	35	48	5
STR	35	96	4
SUL	35	96	4	96	96	3
TAP	36	0	5
TAP	36	48	4
TAP	36	96	2
TAP	36	144	3
TAP	36	192	6
TAP	36	240	4
TAP	36	288	1
TAP	36	336	3
STR	37	0	4
SCR	37	0	4	96	192	3
TAP	38	0	0
TAP	38	48	2
TAP	38	96	3
TAP	38	192	7
TAP	38	240	5
TAP	38	288	4
TAP	39	0	0
TAP	39	48	2
STR	39	96	3
SUR	39	96	3	96	96	4
TAP	40	0	2
TAP	40	48	3
TAP	40	96	5
TAP	40	144	4
TAP	40	192	1
TAP	40	240	3
TAP	40	288	6
TAP	40	336	4
TAP	41	0	2
TAP	41	48	3
TAP	41	96	5
TAP	41	144	4
TAP	41	240	3
TAP	41	240	4
TAP	41	288	3
TAP	41	288	4
HLD	42	0	5	192
TAP	42	96	4
HLD	42	192	2	96
TAP	42	288	3
TAP	43	0	4
TAP	43	0	6
TAP	43	48	2
TAP	43	96	1
TAP	43	96	3
TAP	43	144	5
TAP	43	192	3
TAP	43	192	4
BRK	43	288	1
BRK	43	288	6
HLD	44	0	1	384
TAP	44	96	2
TAP	44	288	2
HLD	45	0	6	384
TAP	45	96	5
TAP	45	288	5
HLD	46	0	1	192
TAP	46	96	2
TAP	46	192	2
TAP	46	288	5
TAP	46	336	5
TAP	47	0	4
TAP	47	96	2
TAP	47	96	3
TAP	47	144	2
TAP	47	144	3
TAP	47	192	1
TAP	47	192	4
TAP	47	240	2
TAP	47	264	3
TAP	47	312	0
BRK	47	360	0
TAP	48	96	4
TAP	48	96	5
TAP	48	192	0
TAP	48	192	2
TAP	48	288	2
TAP	48	288	3
TAP	49	0	5
TAP	49	0	7
TAP	49	96	4
TAP	49	96	5
TAP	49	192	0
TAP	49	192	2
TAP	49	288	2
TAP	49	288	3
TAP	50	0	3
TAP	50	0	6
TAP	50	96	2
TAP	50	96	3
TAP	50	192	1
TAP	50	192	4
TAP	50	288	4
TAP	50	288	5
TAP	51	0	1
TAP	51	0	3
TAP	51	48	5
TAP	51	96	4
TAP	51	96	6
TAP	51	144	2
TAP	51	192	3
TAP	51	192	4
BRK	51	288	1
BRK	51	288	6
TAP	52	0	5
TAP	52	96	4
TAP	52	96	6
HLD	52	192	1	72
HLD	52	264	3	72
TAP	52	336	2
TAP	53	0	2
TAP	53	96	1
TAP	53	96	3
HLD	53	192	6	72
HLD	53	264	4	72
TAP	53	336	5
TAP	54	0	5
TAP	54	96	4
TAP	54	96	6
HLD	54	192	1	72
HLD	54	264	3	72
TAP	54	336	2
TAP	55	0	3
TAP	55	48	4
TAP	55	96	5
TAP	55	192	2
TAP	55	288	2
TAP	55	288	3
TAP	56	0	6
TAP	56	96	5
TAP	56	96	7
HLD	56	192	3	72
HLD	56	264	2	72
TAP	56	336	1
TAP	57	0	1
TAP	57	96	0
TAP	57	96	2
HLD	57	192	4	72
HLD	57	264	5	72
TAP	57	336	6
TAP	58	0	6
TAP	58	96	5
TAP	58	96	7
HLD	58	192	3	72
HLD	58	264	2	72
TAP	58	336	1
TAP	59	0	0
TAP	59	48	7
TAP	59	96	6
TAP	59	192	3
TAP	59	192	4
TAP	59	288	2
TAP	59	288	5
TAP	60	0	4
TAP	60	0	6
TAP	60	48	3
TAP	60	96	2
TAP	60	96	4
TAP	60	144	5
TAP	60	192	4
TAP	60	192	6
BRK	60	288	0
BRK	60	288	5
TAP	61	0	1
TAP	61	0	3
TAP	61	48	4
TAP	61	96	3
TAP	61	96	5
TAP	61	144	2
TAP	61	192	1
TAP	61	192	3
BRK	61	288	2
BRK	61	288	7
TAP	62	0	1
TAP	62	48	2
TAP	62	96	1
TAP	62	96	3
TAP	62	192	6
TAP	62	240	5
TAP	62	288	4
TAP	62	288	6
TAP	63	0	5
TAP	63	48	2
TAP	63	96	2
TAP	63	120	3
TAP	63	168	1
TAP	63	168	4
TAP	63	240	0
TAP	63	288	0
TAP	64	0	5
TAP	64	48	4
TAP	64	96	2
TAP	64	144	3
TAP	64	192	6
TAP	64	240	4
TAP	64	288	1
TAP	64	336	3
TAP	65	0	5
TAP	65	48	4
TAP	65	96	3
TAP	65	144	2
TAP	65	240	0
TAP	65	288	0
TAP	66	0	4
TAP	66	48	5
TAP	66	96	4
TAP	66	96	6
TAP	66	192	3
TAP	66	240	2
TAP	66	288	1
TAP	66	288	3
TAP	67	0	2
TAP	67	48	5
TAP	67	96	5
TAP	67	120	4
TAP	67	168	3
TAP	67	168	6
TAP	67	240	7
TAP	67	288	7
TAP	68	0	2
TAP	68	48	3
TAP	68	96	5
TAP	68	144	4
TAP	68	192	1
TAP	68	240	3
TAP	68	288	6
TAP	68	336	4
TAP	69	0	2
TAP	69	48	3
TAP	69	96	4
HLD	69	144	5	96
TAP	69	240	4
TAP	69	288	3
TAP	69	336	2
HLD	70	0	1	72
HLD	70	72	2	72
HLD	70	144	3	144
TAP	70	288	4
TAP	71	0	0
TAP	71	0	2
TAP	71	48	1
TAP	71	96	5
TAP	71	96	7
TAP	71	144	6
TAP	71	192	0
TAP	71	192	7
BRK	71	288	1
BRK	71	288	6
TAP	72	0	3
TAP	72	24	4
TAP	72	48	3
TAP	72	72	4
TAP	72	120	2
TAP	72	120	5
TAP	72	168	3
TAP	72	192	4
TAP	72	240	2
TAP	72	240	5
TAP	72	288	3
TAP	72	312	4
TAP	72	360	2
TAP	72	360	5

T_REC_TAP	370
T_REC_BRK	17
T_REC_XTP	0
T_REC_HLD	37
T_REC_XHO	0
T_REC_STR	15
T_REC_BST	0
T_REC_XST	0
T_REC_TTP	0
T_REC_THO	0
T_REC_SLD	15
T_REC_ALL	454
T_NUM_TAP	385
T_NUM_BRK	17
T_NUM_HLD	37
T_NUM_SLD	15
T_NUM_ALL	454
T_JUDGE_TAP	402
T_JUDGE_HLD	109
T_JUDGE_SLD	15
T_JUDGE_ALL	526
TTM_EACHPAIRS	95
TTM_SCR_TAP	192500
TTM_SCR_BRK	44200
TTM_SCR_HLD	37000
TTM_SCR_SLD	22500
TTM_SCR_ALL	296200
TTM_SCR_S	285700
TTM_SCR_SS	294500
TTM_RAT_ACV	10057

