VERSION	0.00.00	1.03.00
FES_MODE	0
BPM_DEF	140.000	140.000	140.000	140.000
MET_DEF	4	4
RESOLUTION	384
CLK_DEF	384
COMPATIBLE_CODE	MA2

BPM	0	0	140.000
MET	0	0	4	4

TAP	5	96	4
TAP	5	288	4
TAP	6	96	3
TAP	6	288	3
TAP	7	96	2
TAP	7	288	2
TAP	8	0	2
TAP	8	0	3
TAP	8	192	2
TAP	8	192	3
TAP	9	0	1
TAP	9	96	0
TAP	9	288	0
TAP	10	96	7
TAP	10	288	7
TAP	11	96	6
TAP	11	288	6
TAP	12	96	4
TAP	12	96	5
TAP	12	288	4
TAP	12	288	5
TAP	13	96	6
TAP	13	288	6
TAP	14	96	7
TAP	14	288	7
TAP	15	96	0
TAP	15	288	0
TAP	16	0	7
TAP	16	96	7
TAP	16	192	0
TAP	16	192	7
TAP	17	96	6
TAP	17	288	6
TAP	18	96	5
TAP	18	288	5
TAP	19	96	4
TAP	19	288	4
TAP	20	96	2
TAP	20	96	3
TAP	20	288	2
TAP	20	288	3
TAP	21	96	4
TAP	21	288	4
TAP	22	96	5
TAP	22	288	5
TAP	23	96	6
TAP	23	288	6
TAP	24	0	6
TAP	24	0	7
TAP	24	192	7
TAP	24	288	7
TAP	25	0	0
TAP	25	0	7
TAP	25	192	0
TAP	25	288	0
TAP	26	0	0
TAP	26	0	7
TAP	26	192	7
TAP	26	288	7
STR	27	0	0
SI_	27	0	0	96	288	4
TAP	28	192	4
TAP	28	288	4
TAP	29	0	4
TAP	29	0	5
TAP	29	192	3
TAP	29	288	3
TAP	30	0	2
TAP	30	0	3
TAP	30	192	5
TAP	30	288	5
TAP	31	0	4
TAP	31	0	5
TAP	31	192	2
TAP	31	288	2
STR	32	0	3
SI_	32	0	3	96	288	7
BRK	33	192	0
BRK	33	192	7
TAP	34	0	0
TAP	34	96	0
TAP	34	192	1
TAP	34	288	1
TAP	35	0	2
TAP	35	96	2
TAP	35	192	3
TAP	36	0	4
TAP	36	96	4
TAP	36	192	5
TAP	36	288	5
TAP	37	0	6
TAP	37	96	6
TAP	37	192	0
TAP	37	192	7
TAP	38	0	7
TAP	38	96	7
TAP	38	192	6
TAP	38	288	6
TAP	39	0	5
TAP	39	96	5
TAP	39	192	4
TAP	40	0	3
TAP	40	96	3
TAP	40	192	2
TAP	40	288	2
TAP	41	0	1
TAP	41	96	1
TAP	41	192	0
TAP	41	192	7
HLD	42	0	0	192
HLD	42	0	7	192
TAP	43	0	0
TAP	43	0	7
TAP	43	96	0
TAP	43	96	7
TAP	43	192	1
TAP	43	192	6
TAP	44	0	2
TAP	44	96	1
TAP	44	288	1
TAP	45	96	0
TAP	45	288	0
TAP	46	96	7
TAP	46	288	7
TAP	47	96	6
TAP	47	288	6
TAP	48	96	4
TAP	48	96	5
TAP	48	288	3
TAP	48	288	4
TAP	49	96	2
TAP	49	96	3
TAP	49	288	3
TAP	49	288	4
TAP	50	96	4
TAP	50	96	5
TAP	50	288	3
TAP	50	288	4
TAP	51	0	2
TAP	51	96	2
BRK	51	192	2
STR	52	0	1
SI_	52	0	1	96	288	5
STR	54	0	6
SI_	54	0	6	96	288	2
TAP	56	0	3
TAP	56	192	4
TAP	57	0	5
TAP	57	192	6
TAP	58	0	7
TAP	58	192	0
HLD	59	0	1	192
TAP	60	0	0
TAP	60	96	7
TAP	60	192	0
TAP	61	0	0
TAP	61	0	7
TAP	61	96	0
TAP	61	96	7
BRK	61	192	0
BRK	61	192	7
TAP	62	0	1
TAP	62	96	1
TAP	62	192	2
TAP	62	288	2
TAP	63	0	3
TAP	63	96	3
TAP	63	192	4
TAP	63	192	5
TAP	64	0	5
TAP	64	96	5
TAP	64	192	6
TAP	64	288	6
TAP	65	0	7
TAP	65	96	7
TAP	65	192	0
TAP	65	192	7
TAP	66	0	6
TAP	66	96	6
TAP	66	192	5
TAP	66	288	5
TAP	67	0	4
TAP	67	96	4
TAP	67	192	2
TAP	67	192	3
TAP	68	0	2
TAP	68	96	2
TAP	68	192	1
TAP	68	288	1
TAP	69	0	0
TAP	69	96	0
TAP	69	192	0
TAP	69	192	7
HLD	70	0	0	192
HLD	70	0	7	192
TAP	71	0	0
TAP	71	0	7
TAP	71	96	0
TAP	71	96	7
TAP	71	192	1
TAP	71	192	6
TAP	71	288	1
TAP	71	288	6
STR	72	0	0
SI_	72	0	0	96	288	3
STR	72	0	7
SI_	72	0	7	96	288	4

T_REC_TAP	185
T_REC_BRK	5
T_REC_XTP	0
T_REC_HLD	5
T_REC_XHO	0
T_REC_STR	6
T_REC_BST	0
T_REC_XST	0
T_REC_TTP	0
T_REC_THO	0
T_REC_SLD	6
T_REC_ALL	207
T_NUM_TAP	191
T_NUM_BRK	5
T_NUM_HLD	5
T_NUM_SLD	6
T_NUM_ALL	207
T_JUDGE_TAP	196
T_JUDGE_HLD	20
T_JUDGE_SLD	6
T_JUDGE_ALL	222
TTM_EACHPAIRS	39
TTM_SCR_TAP	95500
TTM_SCR_BRK	13000
TTM_SCR_HLD	5000
TTM_SCR_SLD	9000
TTM_SCR_ALL	122500
TTM_SCR_S	118350
TTM_SCR_SS	122000
TTM_RAT_ACV	10040

