VERSION	0.00.00	1.03.00
FES_MODE	0
BPM_DEF	205.000	205.000	205.000	205.000
MET_DEF	4	4
RESOLUTION	384
CLK_DEF	384
COMPATIBLE_CODE	MA2

BPM	0	0	205.000
MET	0	0	4	4

HLD	7	0	3	1056
HLD	9	0	4	288
TAP	10	0	3
TAP	10	0	4
STR	10	96	3
SI_	10	96	3	96	48	0
STR	10	96	4
SI_	10	96	4	96	48	7
BRK	10	288	1
BRK	10	288	6
TAP	11	0	0
STR	11	0	1
SI_	11	0	1	96	48	4
TAP	11	96	0
STR	11	192	6
SI_	11	192	6	96	48	3
TAP	11	192	7
TAP	11	288	7
TAP	12	0	0
STR	12	0	1
SI_	12	0	1	96	48	4
STR	12	96	0
SCL	12	96	0	96	96	1
STR	13	0	6
SI_	13	0	6	96	48	3
TAP	13	0	7
TAP	13	96	7
TAP	13	192	0
STR	13	192	1
SI_	13	192	1	96	48	4
TAP	13	288	0
TAP	14	0	5
TAP	14	48	1
TAP	14	72	0
TAP	14	96	1
TAP	14	144	2
TAP	14	144	7
BRK	14	192	2
BRK	14	192	7
TAP	14	288	0
TAP	14	288	1
STR	15	0	6
SI_	15	0	6	96	48	3
TAP	15	0	7
TAP	15	96	7
TAP	15	192	0
STR	15	192	1
SI_	15	192	1	96	48	4
TAP	15	288	0
STR	16	0	6
SI_	16	0	6	96	48	3
TAP	16	0	7
STR	16	96	7
SCR	16	96	7	96	96	6
TAP	17	0	6
TAP	17	48	5
TAP	17	96	4
TAP	17	144	1
TAP	17	192	2
TAP	17	240	3
TAP	17	288	5
TAP	17	336	1
TAP	18	0	6
TAP	18	48	1
TAP	18	48	6
TAP	18	96	1
TAP	18	96	6
TAP	18	144	1
TAP	18	144	6
TAP	18	192	0
TAP	18	192	7
TAP	18	240	0
TAP	18	240	7
TAP	18	288	0
STR	18	288	7
SSR	18	288	7	96	192	3
TAP	18	336	0
TAP	18	336	7
STR	19	288	0
SI_	19	288	0	96	48	4
TAP	20	144	3
TAP	20	192	4
TAP	20	288	1
TAP	20	288	6
STR	21	0	5
SI_	21	0	5	96	48	0
STR	21	192	1
SI_	21	192	1	96	48	4
TAP	22	0	5
TAP	22	48	4
TAP	22	96	3
TAP	22	96	6
TAP	22	192	2
TAP	22	240	3
TAP	22	288	1
TAP	22	288	4
STR	23	0	2
SI_	23	0	2	96	48	7
STR	23	192	6
SI_	23	192	6	96	48	3
TAP	24	0	2
TAP	24	48	3
TAP	24	96	1
TAP	24	96	4
TAP	24	192	5
TAP	24	240	4
TAP	24	288	3
TAP	24	288	6
STR	25	0	1
SCL	25	0	1	96	48	6
STR	25	192	5
SCL	25	192	5	96	48	2
STR	26	0	1
SCR	26	0	1	96	48	4
STR	26	96	6
SCR	26	96	6	96	48	1
STR	26	192	3
SCR	26	192	3	96	48	6
STR	27	0	1
SV_	27	0	1	96	48	4
STR	27	0	7
SV_	27	0	7	96	48	4
STR	27	192	0
SV_	27	192	0	96	48	3
STR	27	192	6
SV_	27	192	6	96	48	3
STR	28	0	4
SI_	28	0	4	96	48	0
STR	28	96	3
SI_	28	96	3	96	48	7
TAP	28	192	4
BRK	28	288	1
BRK	28	288	6
STR	29	0	0
SI_	29	0	0	96	48	3
STR	29	0	7
SI_	29	0	7	96	48	4
TAP	29	48	0
TAP	29	48	7
STR	29	192	3
SV_	29	192	3	96	48	0
STR	29	192	4
SCR	29	192	4	96	48	7
TAP	29	240	3
TAP	29	240	4
STR	30	0	0
SV_	30	0	0	96	48	3
STR	30	0	7
SV_	30	0	7	96	48	4
TAP	30	48	0
TAP	30	48	7
BRK	30	192	6
BRK	30	192	7
BRK	30	288	0
BRK	30	288	1
STR	31	0	1
SI_	31	0	1	96	48	5
STR	31	0	5
SI_	31	0	5	96	48	2
TAP	31	48	1
TAP	31	48	5
STR	31	192	2
SV_	31	192	2	96	48	1
STR	31	192	5
SV_	31	192	5	96	48	6
TAP	31	240	2
TAP	31	240	5
STR	32	0	0
SI_	32	0	0	96	48	4
STR	32	0	7
SV_	32	0	7	96	48	4
TAP	32	48	0
TAP	32	48	7
BRK	32	192	5
BRK	32	240	4
BRK	32	288	3
BRK	32	336	2
STR	33	0	0
SI_	33	0	0	96	48	3
STR	33	0	7
SUR	33	0	7	96	48	3
TAP	33	48	0
TAP	33	48	7
STR	33	192	6
SI_	33	192	6	96	48	4
STR	33	192	7
SI_	33	192	7	96	48	4
TAP	33	240	6
TAP	33	240	7
STR	34	0	1
SI_	34	0	1	96	48	6
STR	34	0	2
SI_	34	0	2	96	48	5
TAP	34	48	1
TAP	34	48	2
STR	34	192	0
SV_	34	192	0	96	48	2
STR	34	192	7
SV_	34	192	7	96	48	5
TAP	34	240	0
TAP	34	240	7
STR	35	0	0
SI_	35	0	0	96	48	3
STR	35	0	7
SV_	35	0	7	96	48	4
TAP	35	48	0
TAP	35	48	7
STR	35	192	3
SI_	35	192	3	96	48	0
STR	35	192	4
SCR	35	192	4	96	48	7
TAP	35	240	3
TAP	35	240	4
STR	36	0	0
SCL	36	0	0	96	48	5
STR	36	0	1
SCR	36	0	1	96	48	4
TAP	36	48	0
TAP	36	48	1
TAP	36	192	3
TAP	36	192	6
TAP	36	288	2
TAP	36	288	7
BRK	37	0	0
BRK	37	0	1
BRK	38	0	6
BRK	38	0	7
TAP	38	288	0
TAP	38	288	7
BRK	39	0	1
BRK	39	0	6
STR	39	288	2
SCL	39	288	2	96	96	4
TAP	39	288	5
TAP	40	192	0
TAP	40	192	7
TAP	40	288	1
TAP	40	288	6
TAP	41	0	2
TAP	41	0	7
TAP	41	72	5
TAP	41	96	4
TAP	41	144	4
TAP	41	192	2
TAP	41	192	7
TAP	41	240	2
TAP	41	240	7
TAP	41	336	1
TAP	42	0	3
TAP	42	48	4
STR	42	96	6
SUL	42	96	6	96	96	1
TAP	42	144	6
TAP	42	336	0
STR	43	0	1
SI_	43	0	1	96	48	4
TAP	43	48	1
STR	43	96	6
SI_	43	96	6	96	48	3
TAP	43	144	6
STR	43	192	0
SI_	43	192	0	96	48	4
TAP	43	240	0
STR	44	0	2
SUR	44	0	2	96	48	7
STR	44	0	3
SCR	44	0	3	96	48	6
STR	44	192	4
SCL	44	192	4	96	48	1
STR	44	192	5
SUL	44	192	5	96	48	0
STR	45	0	1
SI_	45	0	1	96	48	4
TAP	45	48	1
TAP	45	144	7
STR	45	192	6
SI_	45	192	6	96	48	3
TAP	45	240	6
TAP	45	336	0
TAP	46	0	7
TAP	46	48	0
STR	46	96	0
SCL	46	96	0	96	48	5
STR	46	96	7
SCR	46	96	7	96	48	2
STR	47	0	1
SI_	47	0	1	96	48	4
STR	47	0	5
SI_	47	0	5	96	48	0
TAP	47	192	2
TAP	47	192	6
STR	47	288	0
SI_	47	288	0	96	48	2
STR	47	288	7
SI_	47	288	7	96	48	3
STR	48	0	0
SI_	48	0	0	96	48	4
STR	48	0	7
SI_	48	0	7	96	48	5
STR	48	96	0
SI_	48	96	0	96	48	2
STR	48	96	7
SI_	48	96	7	96	48	3
STR	48	192	0
SI_	48	192	0	96	48	4
STR	48	192	7
SI_	48	192	7	96	48	5
STR	49	0	2
SI_	49	0	2	96	48	7
STR	49	0	3
SI_	49	0	3	96	48	6
BRK	49	192	1
BRK	49	192	4
TAP	49	336	6
TAP	50	0	4
TAP	50	48	3
STR	50	96	1
SUR	50	96	1	96	96	6
TAP	50	144	1
TAP	50	336	7
STR	51	0	6
SI_	51	0	6	96	48	3
TAP	51	48	6
STR	51	96	1
SI_	51	96	1	96	48	4
TAP	51	144	1
STR	51	192	7
SI_	51	192	7	96	48	3
TAP	51	240	7
STR	52	0	4
SCL	52	0	4	96	48	1
STR	52	0	5
SUL	52	0	5	96	48	0
STR	52	192	2
SUR	52	192	2	96	48	7
STR	52	192	3
SCR	52	192	3	96	48	6
STR	53	0	6
SI_	53	0	6	96	48	3
TAP	53	48	6
TAP	53	144	0
STR	53	192	1
SI_	53	192	1	96	48	4
TAP	53	240	1
TAP	53	336	7
TAP	54	0	0
TAP	54	48	7
STR	54	96	0
SI_	54	96	0	96	48	4
STR	54	96	7
SI_	54	96	7	96	48	3
TAP	54	336	2
TAP	54	336	5
TAP	55	0	2
TAP	55	0	5
TAP	55	72	1
TAP	55	72	6
STR	55	96	1
SI_	55	96	1	96	48	5
STR	55	96	6
SI_	55	96	6	96	48	2
TAP	55	336	0
TAP	56	0	0
TAP	56	96	3
TAP	56	96	4
TAP	56	192	1
TAP	56	192	6
BRK	57	0	0
BRK	57	0	5
BRK	59	0	2
BRK	59	0	7
TAP	60	240	3
TAP	60	240	4
TAP	60	288	3
TAP	60	288	4
TAP	60	336	3
TAP	60	336	4
BRK	61	0	1
BRK	61	0	4
TAP	61	192	5
BRK	62	0	3
BRK	62	0	6
TAP	62	192	2
BRK	63	0	0
BRK	63	0	4
TAP	63	96	2
TAP	63	96	3
BRK	63	192	3
BRK	63	192	7
STR	63	288	4
SI_	63	288	4	96	48	0
TAP	63	288	5
STR	64	0	3
SI_	64	0	3	96	48	7
STR	64	96	5
SI_	64	96	5	96	48	0
TAP	64	192	2
BRK	64	288	1
BRK	64	288	6
HLD	65	0	5	72
TAP	65	72	4
TAP	65	96	6
TAP	65	144	4
TAP	65	192	3
TAP	65	240	2
TAP	65	288	1
TAP	65	288	3
HLD	66	0	2	72
TAP	66	72	3
TAP	66	96	1
TAP	66	144	3
TAP	66	192	4
TAP	66	240	5
TAP	66	288	4
TAP	66	288	6
HLD	67	0	7	72
TAP	67	72	0
TAP	67	96	6
TAP	67	144	1
TAP	67	192	2
TAP	67	240	3
STR	67	288	4
SI_	67	288	4	96	48	0
TAP	67	288	5
STR	68	0	3
SI_	68	0	3	96	48	7
STR	68	96	5
SI_	68	96	5	96	48	0
STR	68	192	2
SI_	68	192	2	96	48	7
BRK	68	288	0
HLD	69	0	2	72
TAP	69	72	3
TAP	69	96	1
TAP	69	144	3
TAP	69	192	4
TAP	69	240	5
TAP	69	288	4
TAP	69	288	6
HLD	70	0	5	72
TAP	70	72	4
TAP	70	96	6
TAP	70	144	4
TAP	70	192	3
TAP	70	240	2
TAP	70	288	1
TAP	70	288	3
HLD	71	0	0	72
TAP	71	72	7
TAP	71	96	1
TAP	71	144	6
TAP	71	192	5
TAP	71	240	4
TAP	71	288	2
STR	71	288	3
SI_	71	288	3	96	48	7
STR	72	0	4
SI_	72	0	4	96	48	0
STR	72	96	2
SI_	72	96	2	96	48	7
TAP	72	192	5
BRK	72	288	1
BRK	72	288	6
HLD	73	0	1	72
TAP	73	72	0
TAP	73	96	2
TAP	73	144	0
TAP	73	192	7
TAP	73	240	6
TAP	73	288	5
TAP	73	288	7
HLD	74	0	6	72
TAP	74	72	7
TAP	74	96	5
TAP	74	144	7
TAP	74	192	0
TAP	74	240	1
TAP	74	288	0
TAP	74	288	2
HLD	75	0	4	72
TAP	75	72	3
TAP	75	96	5
TAP	75	144	6
TAP	75	192	5
TAP	75	240	4
TAP	75	288	2
STR	75	288	3
SI_	75	288	3	96	48	7
STR	76	0	4
SI_	76	0	4	96	48	0
STR	76	96	2
SI_	76	96	2	96	48	7
STR	76	192	5
SI_	76	192	5	96	48	0
BRK	76	288	7
HLD	77	0	6	72
TAP	77	72	7
TAP	77	96	5
TAP	77	144	7
TAP	77	192	0
TAP	77	240	1
TAP	77	288	0
TAP	77	288	2
HLD	78	0	1	72
TAP	78	72	0
TAP	78	96	2
TAP	78	144	0
TAP	78	192	7
TAP	78	240	6
TAP	78	288	5
TAP	78	288	7
HLD	79	0	3	72
TAP	79	72	4
TAP	79	96	2
TAP	79	144	1
TAP	79	192	2
TAP	79	240	3
TAP	79	288	4
TAP	79	288	5
TAP	80	0	0
TAP	80	32	2
TAP	80	64	1
TAP	80	96	7
TAP	80	128	5
TAP	80	160	6
STR	80	192	0
SSL	80	192	0	96	1056	4
STR	84	0	3
SI_	84	0	3	96	48	0
STR	84	0	4
SI_	84	0	4	96	48	7
TAP	84	192	0
TAP	84	192	7
TAP	84	288	1
TAP	84	288	6
TAP	85	0	0
TAP	85	0	5
TAP	85	72	2
TAP	85	96	3
TAP	85	144	3
TAP	85	192	0
TAP	85	192	5
TAP	85	240	0
TAP	85	240	5
TAP	85	336	6
TAP	86	0	4
TAP	86	48	3
STR	86	96	1
SCL	86	96	1	96	96	3
TAP	86	144	1
TAP	86	336	7
STR	87	0	6
SI_	87	0	6	96	48	3
TAP	87	48	6
STR	87	96	1
SI_	87	96	1	96	48	4
TAP	87	144	1
STR	87	192	7
SCR	87	192	7	96	48	3
TAP	87	240	7
STR	88	0	4
SCL	88	0	4	96	48	1
STR	88	0	5
SUL	88	0	5	96	48	0
STR	88	192	2
SUR	88	192	2	96	48	7
STR	88	192	3
SCR	88	192	3	96	48	6
STR	89	0	6
SI_	89	0	6	96	48	3
TAP	89	48	5
TAP	89	144	0
STR	89	192	1
SI_	89	192	1	96	48	4
TAP	89	240	2
TAP	89	336	7
TAP	90	0	0
TAP	90	48	7
STR	90	96	0
SCL	90	96	0	96	48	4
STR	90	96	7
SCR	90	96	7	96	48	3
STR	91	0	2
SI_	91	0	2	96	48	7
STR	91	0	6
SI_	91	0	6	96	48	3
TAP	91	192	1
TAP	91	192	5
STR	91	288	0
SI_	91	288	0	96	48	4
STR	91	288	7
SI_	91	288	7	96	48	5
STR	92	0	0
SI_	92	0	0	96	48	2
STR	92	0	7
SI_	92	0	7	96	48	3
STR	92	96	0
SI_	92	96	0	96	48	4
STR	92	96	7
SI_	92	96	7	96	48	5
STR	92	192	0
SI_	92	192	0	96	48	2
STR	92	192	7
SI_	92	192	7	96	48	3
STR	93	0	4
SI_	93	0	4	96	48	1
STR	93	0	5
SI_	93	0	5	96	48	0
BRK	93	192	3
BRK	93	192	6
TAP	93	336	1
TAP	94	0	3
TAP	94	48	4
STR	94	96	6
SCR	94	96	6	96	96	4
TAP	94	144	6
TAP	94	336	0
STR	95	0	1
SI_	95	0	1	96	48	4
TAP	95	48	1
STR	95	96	6
SI_	95	96	6	96	48	3
TAP	95	144	6
STR	95	192	0
SCL	95	192	0	96	48	5
TAP	95	240	0
STR	96	0	2
SUR	96	0	2	96	48	7
STR	96	0	3
SCR	96	0	3	96	48	6
STR	96	192	4
SCL	96	192	4	96	48	1
STR	96	192	5
SUL	96	192	5	96	48	0
STR	97	0	1
SI_	97	0	1	96	48	4
TAP	97	48	2
TAP	97	144	7
STR	97	192	6
SI_	97	192	6	96	48	3
TAP	97	240	5
TAP	97	336	0
TAP	98	0	7
TAP	98	48	0
STR	98	96	0
SI_	98	96	0	96	48	4
STR	98	96	7
SI_	98	96	7	96	48	3
TAP	98	336	2
TAP	98	336	5
TAP	99	0	2
TAP	99	0	5
TAP	99	72	1
TAP	99	72	6
STR	99	96	1
SI_	99	96	1	96	48	5
STR	99	96	6
SI_	99	96	6	96	48	2
TAP	99	336	7
TAP	100	0	7
TAP	100	96	3
TAP	100	96	4
TAP	100	192	1
TAP	100	192	6
STR	101	0	2
SI_	101	0	2	96	192	5
STR	101	0	6
SI_	101	0	6	96	192	1
TAP	102	0	2
TAP	102	0	7
STR	102	96	0
SI_	102	96	0	96	48	4
STR	102	96	1
SI_	102	96	1	96	48	5
STR	103	0	1
SI_	103	0	1	96	48	4
TAP	103	0	4
TAP	103	96	0
TAP	103	192	3
STR	103	192	6
SI_	103	192	6	96	48	3
TAP	103	288	7
STR	104	0	1
SI_	104	0	1	96	48	4
TAP	104	0	4
STR	104	96	0
SUL	104	96	0	96	96	7
TAP	105	0	3
STR	105	0	6
SI_	105	0	6	96	48	3
TAP	105	96	7
STR	105	192	1
SI_	105	192	1	96	48	4
TAP	105	192	4
TAP	105	288	0
TAP	106	0	5
TAP	106	48	1
TAP	106	72	0
TAP	106	96	1
TAP	106	144	2
TAP	106	144	7
TAP	106	192	2
TAP	106	192	7
BRK	106	240	0
BRK	106	288	0
BRK	106	336	0
TAP	107	0	3
STR	107	0	6
SI_	107	0	6	96	48	3
TAP	107	96	7
STR	107	192	1
SI_	107	192	1	96	48	4
TAP	107	192	4
TAP	107	288	0
TAP	108	0	3
STR	108	0	6
SI_	108	0	6	96	48	3
STR	108	96	7
SUR	108	96	7	96	96	0
TAP	109	0	1
TAP	109	48	3
TAP	109	96	2
TAP	109	144	6
TAP	109	192	4
TAP	109	240	5
TAP	109	288	1
TAP	109	336	5
TAP	110	0	0
TAP	110	48	0
TAP	110	48	7
TAP	110	96	0
TAP	110	96	7
TAP	110	144	0
TAP	110	144	7
STR	110	192	1
SI_	110	192	1	96	48	4
STR	110	192	6
SI_	110	192	6	96	48	3
TAP	110	240	1
TAP	110	240	6
STR	111	0	1
SI_	111	0	1	96	48	4
TAP	111	48	1
TAP	111	96	7
TAP	111	144	7
STR	111	192	6
SI_	111	192	6	96	48	3
TAP	111	240	6
TAP	111	288	0
TAP	111	336	0
STR	112	0	1
SI_	112	0	1	96	48	4
TAP	112	48	1
TAP	112	96	7
TAP	112	144	7
STR	112	192	6
SI_	112	192	6	96	48	3
TAP	112	240	6
TAP	112	288	0
TAP	112	336	0
STR	113	0	1
SI_	113	0	1	96	48	4
TAP	113	48	1
TAP	113	96	7
TAP	113	144	7
STR	113	192	6
SI_	113	192	6	96	48	3
TAP	113	240	6
TAP	113	288	0
TAP	113	336	0
TAP	114	0	1
TAP	114	0	4
TAP	114	48	6
TAP	114	72	7
TAP	114	96	6
TAP	114	144	0
TAP	114	144	5
TAP	114	192	0
TAP	114	192	5
BRK	114	240	7
BRK	114	288	7
BRK	114	336	7
STR	115	0	1
SI_	115	0	1	96	48	4
TAP	115	0	4
TAP	115	48	1
TAP	115	96	7
TAP	115	144	7
TAP	115	192	3
STR	115	192	6
SI_	115	192	6	96	48	3
TAP	115	240	6
TAP	115	288	0
TAP	115	336	0
STR	116	0	1
SI_	116	0	1	96	48	4
TAP	116	0	4
TAP	116	48	1
TAP	116	96	7
TAP	116	144	7
TAP	116	192	3
STR	116	192	6
SI_	116	192	6	96	48	3
TAP	116	240	6
TAP	116	288	0
TAP	116	336	0
TAP	117	0	1
TAP	117	48	3
TAP	117	96	2
TAP	117	144	6
TAP	117	192	4
TAP	117	240	5
TAP	117	288	3
TAP	117	336	4
TAP	118	0	3
TAP	118	48	2
TAP	118	48	5
TAP	118	96	2
TAP	118	96	5
TAP	118	144	1
TAP	118	144	6
TAP	118	192	1
TAP	118	192	6
TAP	118	240	0
TAP	118	240	7
STR	118	288	0
SSL	118	288	0	96	192	4
TAP	118	288	7
TAP	118	336	0
TAP	118	336	7
STR	119	288	7
SI_	119	288	7	96	48	3

T_REC_TAP	416
T_REC_BRK	48
T_REC_XTP	0
T_REC_HLD	14
T_REC_XHO	0
T_REC_STR	177
T_REC_BST	0
T_REC_XST	0
T_REC_TTP	0
T_REC_THO	0
T_REC_SLD	177
T_REC_ALL	832
T_NUM_TAP	593
T_NUM_BRK	48
T_NUM_HLD	14
T_NUM_SLD	177
T_NUM_ALL	832
T_JUDGE_TAP	641
T_JUDGE_HLD	52
T_JUDGE_SLD	177
T_JUDGE_ALL	870
TTM_EACHPAIRS	172
TTM_SCR_TAP	296500
TTM_SCR_BRK	124800
TTM_SCR_HLD	14000
TTM_SCR_SLD	265500
TTM_SCR_ALL	700800
TTM_SCR_S	675150
TTM_SCR_SS	696000
TTM_RAT_ACV	10068

