VERSION	0.00.00	1.03.00
FES_MODE	0
BPM_DEF	205.000	205.000	205.000	205.000
MET_DEF	4	4
RESOLUTION	384
CLK_DEF	384
COMPATIBLE_CODE	MA2

BPM	0	0	205.000
MET	0	0	4	4

TAP	1	0	2
TAP	1	192	3
TAP	2	0	4
TAP	2	192	5
TAP	3	0	4
TAP	3	96	4
TAP	3	192	3
TAP	3	288	3
TAP	4	0	5
TAP	4	192	4
TAP	5	0	3
TAP	5	192	2
HLD	6	0	3	96
HLD	6	0	4	96
HLD	6	192	3	96
HLD	6	192	4	96
HLD	7	0	1	192
TAP	7	96	3
TAP	7	192	3
HLD	7	288	6	192
TAP	8	0	4
TAP	8	96	4
HLD	8	192	1	192
TAP	8	288	0
TAP	9	0	0
HLD	9	96	6	192
TAP	9	192	7
TAP	9	288	7
TAP	10	0	0
TAP	10	0	7
TAP	10	96	0
TAP	10	96	7
TAP	10	192	2
TAP	10	192	5
BRK	10	288	0
BRK	10	288	7
TAP	11	0	1
STR	11	96	1
SI_	11	96	1	96	96	4
TAP	12	0	6
STR	12	96	6
SI_	12	96	6	96	96	3
TAP	13	0	0
STR	13	96	0
SCL	13	96	0	96	96	5
TAP	14	0	7
STR	14	96	7
SCR	14	96	7	96	96	2
TAP	15	0	5
STR	15	96	4
SI_	15	96	4	96	96	1
TAP	16	0	2
STR	16	96	3
SI_	16	96	3	96	96	6
TAP	17	0	6
STR	17	96	6
SCR	17	96	6	96	96	1
TAP	18	0	0
TAP	18	0	7
STR	18	96	0
SI_	18	96	0	96	72	3
STR	18	96	7
SI_	18	96	7	96	72	4
HLD	19	0	2	144
TAP	19	96	0
TAP	19	144	0
HLD	19	288	5	144
TAP	20	0	7
TAP	20	48	7
TAP	20	192	2
TAP	20	192	5
TAP	20	288	0
TAP	20	288	7
TAP	21	0	0
STR	21	96	0
SI_	21	96	0	96	96	2
TAP	22	0	3
TAP	22	96	4
TAP	22	192	5
TAP	22	288	6
TAP	23	0	7
STR	23	96	7
SI_	23	96	7	96	96	5
TAP	24	0	4
TAP	24	96	3
TAP	24	192	2
TAP	24	288	1
TAP	25	0	0
STR	25	96	0
SI_	25	96	0	96	96	3
TAP	26	0	4
TAP	26	96	2
TAP	26	192	6
TAP	26	288	0
TAP	27	0	7
STR	27	96	7
SI_	27	96	7	96	96	4
TAP	28	0	3
TAP	28	96	5
TAP	28	192	2
BRK	28	288	4
TAP	29	0	2
TAP	29	48	2
TAP	29	96	2
TAP	29	192	5
TAP	29	240	5
TAP	29	288	5
TAP	30	0	3
TAP	30	0	4
TAP	30	48	3
TAP	30	48	4
TAP	30	96	3
TAP	30	96	4
BRK	30	192	0
BRK	30	288	0
TAP	31	0	5
TAP	31	48	5
TAP	31	96	5
TAP	31	192	2
TAP	31	240	2
TAP	31	288	2
TAP	32	0	3
TAP	32	0	4
TAP	32	48	3
TAP	32	48	4
TAP	32	96	3
TAP	32	96	4
BRK	32	192	7
BRK	32	288	7
TAP	33	0	2
TAP	33	48	3
TAP	33	96	2
TAP	33	192	5
TAP	33	240	4
TAP	33	288	5
TAP	34	0	2
TAP	34	0	3
TAP	34	48	2
TAP	34	48	3
TAP	34	96	2
TAP	34	96	3
BRK	34	192	0
BRK	34	288	0
TAP	35	0	5
TAP	35	48	4
TAP	35	96	5
TAP	35	192	2
TAP	35	240	3
TAP	35	288	2
TAP	36	0	4
TAP	36	0	5
TAP	36	48	4
TAP	36	48	5
TAP	36	96	4
TAP	36	96	5
TAP	36	192	0
TAP	36	192	1
TAP	36	288	6
TAP	36	288	7
BRK	37	0	0
BRK	37	0	7
STR	38	0	0
SUR	38	0	0	96	192	6
STR	39	0	7
SUL	39	0	7	96	192	1
TAP	40	0	0
STR	40	96	0
SSL	40	96	0	96	96	4
TAP	41	0	0
TAP	41	0	1
TAP	41	96	1
TAP	41	96	2
TAP	41	192	2
TAP	41	192	3
TAP	42	0	6
TAP	42	0	7
TAP	42	96	5
TAP	42	96	6
TAP	42	192	4
TAP	42	192	5
TAP	43	0	2
TAP	43	0	3
TAP	43	96	3
TAP	43	96	4
TAP	43	192	4
TAP	43	192	5
TAP	44	0	3
TAP	44	0	4
TAP	44	96	0
TAP	44	96	7
TAP	44	192	1
TAP	44	192	6
BRK	44	288	2
BRK	44	288	5
HLD	45	0	1	96
HLD	45	0	2	96
HLD	45	192	5	96
HLD	45	192	6	96
TAP	46	0	0
TAP	46	0	1
TAP	46	96	0
TAP	46	96	7
TAP	46	192	6
TAP	46	192	7
TAP	47	0	1
TAP	47	0	6
STR	47	96	3
SI_	47	96	3	96	96	0
STR	47	96	4
SI_	47	96	4	96	96	7
HLD	48	0	1	96
BRK	48	96	7
HLD	48	192	6	96
BRK	48	288	0
TAP	49	0	2
TAP	49	0	5
TAP	49	96	2
TAP	49	96	5
TAP	49	192	0
TAP	49	192	7
TAP	50	0	0
TAP	50	0	1
TAP	50	96	2
TAP	50	96	3
TAP	50	192	4
TAP	50	192	5
TAP	51	0	6
TAP	51	0	7
TAP	51	96	4
TAP	51	96	5
TAP	51	192	2
TAP	51	192	3
TAP	52	0	0
TAP	52	0	1
TAP	52	96	0
TAP	52	96	1
TAP	52	192	6
TAP	52	192	7
TAP	52	288	6
TAP	52	288	7
HLD	53	0	0	96
HLD	53	0	7	96
HLD	53	192	3	96
HLD	53	192	4	96
TAP	54	0	2
TAP	54	0	3
TAP	54	96	3
TAP	54	96	4
TAP	54	192	4
TAP	54	192	5
TAP	55	0	2
TAP	55	0	5
STR	55	96	0
SI_	55	96	0	96	96	4
STR	55	96	7
SI_	55	96	7	96	96	3
TAP	56	0	6
TAP	56	0	7
TAP	56	96	0
TAP	56	96	7
TAP	56	192	0
TAP	56	192	1
STR	57	0	0
SUL	57	0	0	96	576	7
STR	59	0	7
SCL	59	0	7	96	576	0
STR	61	0	0
SUR	61	0	0	96	480	3
HLD	63	0	3	96
HLD	63	192	4	96
BRK	64	0	1
BRK	64	0	6
BRK	64	96	1
BRK	64	96	6
BRK	64	192	0
BRK	64	192	7
TAP	65	0	0
TAP	65	96	1
TAP	65	192	2
TAP	65	288	3
TAP	66	0	7
TAP	66	96	6
TAP	66	192	5
TAP	66	288	4
TAP	67	0	1
TAP	67	96	6
TAP	67	192	0
TAP	67	240	7
TAP	67	288	0
BRK	68	0	0
BRK	68	0	2
BRK	68	96	0
BRK	68	96	2
BRK	68	192	5
BRK	68	192	7
BRK	68	288	5
BRK	68	288	7
TAP	69	0	4
TAP	69	96	5
TAP	69	192	6
TAP	69	288	7
TAP	70	0	3
TAP	70	96	2
TAP	70	192	1
TAP	70	288	0
TAP	71	0	6
TAP	71	96	1
TAP	71	192	7
TAP	71	240	0
TAP	71	288	7
BRK	72	0	0
BRK	72	0	1
BRK	72	96	6
BRK	72	96	7
BRK	72	192	1
BRK	72	192	6
TAP	73	0	2
TAP	73	48	3
TAP	73	96	2
TAP	73	192	5
TAP	73	240	4
TAP	73	288	5
TAP	74	0	3
TAP	74	48	4
TAP	74	96	3
TAP	74	144	4
TAP	74	192	3
TAP	74	240	4
TAP	74	288	3
HLD	75	0	6	96
HLD	75	96	0	96
HLD	75	192	7	96
TAP	75	288	1
BRK	76	0	0
BRK	76	0	2
BRK	76	96	5
BRK	76	96	7
BRK	76	192	0
BRK	76	192	2
BRK	76	288	5
BRK	76	288	7
TAP	77	0	5
TAP	77	48	4
TAP	77	96	5
TAP	77	192	2
TAP	77	240	3
TAP	77	288	2
TAP	78	0	4
TAP	78	48	3
TAP	78	96	4
TAP	78	144	3
TAP	78	192	4
TAP	78	240	3
TAP	78	288	4
HLD	79	0	1	96
HLD	79	96	7	96
HLD	79	192	0	96
TAP	79	288	6
TAP	80	0	0
TAP	80	0	7
STR	80	96	0
SI_	80	96	0	96	48	3
STR	80	96	7
SI_	80	96	7	96	48	4
HLD	81	0	1	384
HLD	82	0	0	384
HLD	83	0	7	384
TAP	84	0	6
STR	84	96	6
SSL	84	96	6	96	96	2
TAP	85	0	0
TAP	85	0	1
STR	85	96	0
SI_	85	96	0	96	72	5
STR	85	96	1
SI_	85	96	1	96	72	4
TAP	86	0	6
TAP	86	0	7
STR	86	96	6
SI_	86	96	6	96	72	3
STR	86	96	7
SI_	86	96	7	96	72	2
TAP	87	0	0
TAP	87	0	7
STR	87	96	0
SI_	87	96	0	96	72	4
STR	87	96	7
SI_	87	96	7	96	72	3
TAP	88	0	2
TAP	88	0	3
TAP	88	96	6
TAP	88	96	7
TAP	88	192	4
TAP	88	192	5
BRK	88	288	0
BRK	88	288	1
STR	89	0	4
SCR	89	0	4	96	48	6
STR	89	192	3
SCL	89	192	3	96	48	1
TAP	90	0	3
TAP	90	0	4
STR	90	96	0
SI_	90	96	0	96	48	2
STR	90	96	7
SI_	90	96	7	96	48	5
TAP	91	0	0
TAP	91	96	6
TAP	91	192	2
TAP	91	288	4
HLD	92	0	7	96
BRK	92	96	5
HLD	92	192	1	96
BRK	92	288	3
STR	93	0	4
SI_	93	0	4	96	72	7
TAP	93	192	0
TAP	94	0	0
TAP	94	0	7
STR	94	96	5
SI_	94	96	5	96	72	2
STR	94	96	6
SI_	94	96	6	96	72	1
TAP	95	0	0
TAP	95	0	7
STR	95	96	1
SI_	95	96	1	96	72	6
STR	95	96	2
SI_	95	96	2	96	72	5
TAP	96	0	5
TAP	96	0	6
TAP	96	96	3
TAP	96	96	4
TAP	96	192	0
TAP	96	192	7
TAP	96	288	1
TAP	96	288	2
STR	97	0	7
SI_	97	0	7	96	72	3
STR	97	192	0
SI_	97	192	0	96	72	4
TAP	98	0	5
TAP	98	96	2
TAP	98	96	3
TAP	98	192	0
TAP	98	192	1
TAP	99	0	0
TAP	99	0	7
TAP	99	96	3
TAP	99	96	4
TAP	99	192	0
TAP	99	192	7
TAP	100	0	0
STR	100	96	0
SCL	100	96	0	96	72	6
STR	101	0	0
SI_	101	0	0	96	192	3
STR	101	0	6
SI_	101	0	6	96	192	3
TAP	102	0	3
STR	102	96	3
SI_	102	96	3	96	72	7
TAP	103	0	1
TAP	103	96	1
STR	103	192	1
SI_	103	192	1	96	48	5
TAP	104	0	6
TAP	104	96	6
STR	104	192	6
SI_	104	192	6	96	48	2
TAP	105	0	1
TAP	105	96	1
STR	105	192	1
SCL	105	192	1	96	48	7
TAP	106	0	5
STR	106	96	5
SCL	106	96	5	96	48	3
TAP	107	0	0
TAP	107	96	0
STR	107	192	0
SI_	107	192	0	96	48	2
TAP	108	0	4
TAP	108	96	4
STR	108	192	4
SI_	108	192	4	96	48	6
TAP	109	0	2
TAP	109	96	2
STR	109	192	2
SI_	109	192	2	96	48	4
TAP	110	0	6
STR	110	96	6
SI_	110	96	6	96	48	0
TAP	111	0	2
TAP	111	0	3
TAP	111	96	2
TAP	111	96	3
TAP	111	192	4
TAP	111	192	5
TAP	111	288	4
TAP	111	288	5
TAP	112	0	1
TAP	112	0	3
TAP	112	96	1
TAP	112	96	3
TAP	112	192	4
TAP	112	192	6
TAP	112	288	4
TAP	112	288	6
TAP	113	0	0
TAP	113	0	2
TAP	113	96	0
TAP	113	96	2
TAP	113	192	5
TAP	113	192	7
TAP	113	288	5
TAP	113	288	7
TAP	114	0	0
TAP	114	0	1
TAP	114	96	6
TAP	114	96	7
TAP	114	192	0
TAP	114	192	7
TAP	115	0	1
TAP	115	48	0
TAP	115	96	1
TAP	115	192	6
TAP	115	240	7
TAP	115	288	6
TAP	116	0	0
TAP	116	48	7
TAP	116	96	1
TAP	116	144	6
TAP	116	192	2
TAP	116	240	5
TAP	116	288	3
TAP	117	0	2
TAP	117	0	6
TAP	117	48	2
TAP	117	48	6
TAP	117	96	2
TAP	117	96	6
TAP	117	192	0
TAP	117	192	4
TAP	117	240	0
TAP	117	240	4
TAP	117	288	0
TAP	117	288	4
TAP	118	0	1
TAP	118	48	1
TAP	118	96	5
TAP	118	144	5
TAP	118	192	3
TAP	118	240	3
TAP	118	288	7
TAP	118	336	7
HLD	119	0	2	144
TAP	119	96	0
TAP	119	144	0
HLD	119	288	5	144
TAP	120	0	7
BRK	120	48	7

T_REC_TAP	368
T_REC_BRK	48
T_REC_XTP	0
T_REC_HLD	35
T_REC_XHO	0
T_REC_STR	55
T_REC_BST	0
T_REC_XST	0
T_REC_TTP	0
T_REC_THO	0
T_REC_SLD	55
T_REC_ALL	561
T_NUM_TAP	423
T_NUM_BRK	48
T_NUM_HLD	35
T_NUM_SLD	55
T_NUM_ALL	561
T_JUDGE_TAP	471
T_JUDGE_HLD	100
T_JUDGE_SLD	55
T_JUDGE_ALL	626
TTM_EACHPAIRS	131
TTM_SCR_TAP	211500
TTM_SCR_BRK	124800
TTM_SCR_HLD	35000
TTM_SCR_SLD	82500
TTM_SCR_ALL	453800
TTM_SCR_S	435550
TTM_SCR_SS	449000
TTM_RAT_ACV	10106

