VERSION	0.00.00	1.03.00
FES_MODE	0
BPM_DEF	205.000	205.000	205.000	205.000
MET_DEF	4	4
RESOLUTION	384
CLK_DEF	384
COMPATIBLE_CODE	MA2

BPM	0	0	205.000
MET	0	0	4	4

TAP	11	0	1
TAP	11	96	2
TAP	11	192	3
TAP	11	192	4
TAP	12	0	6
TAP	12	96	5
TAP	12	192	3
TAP	12	192	4
TAP	13	0	1
TAP	13	96	0
TAP	13	192	7
TAP	13	288	6
TAP	14	0	7
TAP	14	96	0
TAP	14	192	0
TAP	14	192	7
TAP	15	0	5
TAP	15	96	6
TAP	15	192	0
TAP	15	192	7
TAP	16	0	2
TAP	16	96	1
TAP	16	192	0
TAP	16	192	7
TAP	17	0	6
TAP	17	96	7
TAP	17	192	0
TAP	17	288	1
TAP	18	0	0
TAP	18	96	7
TAP	18	192	1
TAP	18	192	6
TAP	18	288	1
TAP	18	288	6
TAP	20	192	3
TAP	20	192	4
TAP	20	288	3
TAP	20	288	4
TAP	21	0	2
TAP	21	96	3
TAP	21	192	1
TAP	21	192	4
TAP	22	0	5
TAP	22	96	4
TAP	22	192	3
TAP	22	192	6
TAP	23	0	2
TAP	23	96	3
TAP	23	192	4
TAP	23	288	5
TAP	24	0	4
TAP	24	96	3
TAP	24	192	2
TAP	24	192	5
TAP	25	0	2
TAP	25	96	1
TAP	25	192	0
TAP	25	192	7
TAP	26	0	5
TAP	26	96	6
TAP	26	192	0
TAP	26	192	7
TAP	27	0	6
TAP	27	96	6
TAP	27	192	7
TAP	27	288	7
TAP	28	0	0
TAP	28	96	0
TAP	28	192	0
TAP	28	192	7
TAP	29	0	2
TAP	29	96	2
TAP	29	96	3
TAP	29	192	5
TAP	29	288	4
TAP	29	288	5
TAP	30	0	3
TAP	30	96	3
TAP	30	96	4
TAP	30	192	2
TAP	30	192	5
TAP	31	0	1
TAP	31	96	0
TAP	31	96	1
TAP	31	192	6
TAP	31	288	6
TAP	31	288	7
TAP	32	0	0
TAP	32	96	0
TAP	32	96	7
TAP	32	192	1
TAP	32	192	6
TAP	33	0	5
TAP	33	96	4
TAP	33	96	5
TAP	33	192	2
TAP	33	288	2
TAP	33	288	3
TAP	34	0	4
TAP	34	96	3
TAP	34	96	4
TAP	34	192	2
TAP	34	192	5
TAP	35	0	6
TAP	35	96	6
TAP	35	96	7
TAP	35	192	1
TAP	35	288	0
TAP	35	288	1
TAP	36	0	2
TAP	36	96	3
TAP	36	192	4
TAP	36	288	5
TAP	37	0	1
TAP	37	0	6
TAP	38	0	2
TAP	38	0	5
TAP	38	288	3
TAP	38	288	4
TAP	39	0	2
TAP	39	0	5
TAP	39	288	1
TAP	39	288	6
TAP	40	0	0
TAP	40	0	7
TAP	40	96	0
TAP	40	96	7
BRK	40	192	0
BRK	40	192	7
TAP	41	0	2
TAP	41	96	3
TAP	41	192	1
TAP	41	192	4
TAP	42	0	5
TAP	42	96	4
TAP	42	192	3
TAP	42	192	6
TAP	43	0	7
TAP	43	96	0
TAP	43	192	1
TAP	43	192	6
TAP	44	0	1
TAP	44	0	6
TAP	44	96	2
TAP	44	96	5
BRK	44	192	3
BRK	44	192	4
TAP	45	0	2
TAP	45	0	3
TAP	45	192	4
TAP	45	192	5
TAP	46	0	3
TAP	46	96	4
TAP	46	192	2
TAP	46	192	5
TAP	47	0	6
TAP	47	96	7
TAP	47	192	0
TAP	47	192	1
TAP	48	0	2
TAP	48	96	3
TAP	48	192	4
TAP	48	288	5
TAP	49	0	5
TAP	49	96	4
TAP	49	192	3
TAP	49	192	6
TAP	50	0	2
TAP	50	96	3
TAP	50	192	1
TAP	50	192	4
TAP	51	0	7
TAP	51	96	0
TAP	51	192	1
TAP	51	192	6
TAP	52	0	1
TAP	52	0	6
TAP	52	96	2
TAP	52	96	5
TAP	52	192	3
TAP	52	192	4
TAP	53	0	4
TAP	53	0	5
TAP	53	192	2
TAP	53	192	3
TAP	54	0	4
TAP	54	96	3
TAP	54	192	2
TAP	54	192	5
TAP	55	0	1
TAP	55	96	2
TAP	55	192	3
TAP	55	192	4
TAP	56	0	6
TAP	56	96	5
TAP	56	192	3
TAP	56	192	4
STR	57	0	0
SI_	57	0	0	96	288	3
STR	57	0	7
SI_	57	0	7	96	288	4
STR	59	0	3
SI_	59	0	3	96	288	0
STR	59	0	4
SI_	59	0	4	96	288	7
STR	61	0	1
SI_	61	0	1	96	192	4
STR	62	0	6
SI_	62	0	6	96	192	3
HLD	63	0	3	192
HLD	63	192	4	192
TAP	64	0	3
TAP	64	96	4
TAP	64	192	2
TAP	64	192	5
TAP	65	0	1
TAP	65	96	1
TAP	65	192	4
TAP	65	288	4
TAP	66	0	2
TAP	66	96	3
TAP	66	192	1
TAP	66	192	4
TAP	67	0	3
TAP	67	96	3
TAP	67	192	4
TAP	67	288	4
TAP	68	0	2
TAP	68	0	3
TAP	68	96	2
TAP	68	96	3
TAP	68	192	4
TAP	68	192	5
TAP	68	288	4
TAP	68	288	5
TAP	69	0	6
TAP	69	96	6
TAP	69	192	3
TAP	69	288	3
TAP	70	0	5
TAP	70	96	4
TAP	70	192	3
TAP	70	192	6
TAP	71	0	4
TAP	71	96	4
TAP	71	192	3
TAP	71	288	3
TAP	72	0	4
TAP	72	0	5
TAP	72	96	2
TAP	72	96	3
TAP	72	192	3
TAP	72	192	4
TAP	73	0	2
TAP	73	96	2
TAP	73	192	7
TAP	73	288	7
TAP	74	0	1
TAP	74	96	0
TAP	74	192	2
TAP	74	192	7
TAP	75	0	0
TAP	75	96	0
TAP	75	192	7
TAP	75	288	7
TAP	76	0	0
TAP	76	0	1
TAP	76	96	0
TAP	76	96	1
TAP	76	192	6
TAP	76	192	7
TAP	76	288	6
TAP	76	288	7
TAP	77	0	5
TAP	77	96	5
TAP	77	192	0
TAP	77	288	0
TAP	78	0	6
TAP	78	96	7
TAP	78	192	0
TAP	78	192	5
TAP	79	0	1
TAP	79	96	0
TAP	79	96	1
TAP	79	192	6
TAP	79	288	6
TAP	79	288	7
TAP	80	0	0
TAP	80	96	0
TAP	80	96	7
BRK	80	192	1
BRK	80	192	6
TAP	84	192	3
TAP	84	192	4
TAP	84	288	3
TAP	84	288	4
TAP	85	0	2
TAP	85	96	3
TAP	85	192	1
TAP	85	192	4
TAP	86	0	5
TAP	86	96	4
TAP	86	192	3
TAP	86	192	6
TAP	87	0	7
TAP	87	96	0
TAP	87	192	1
TAP	87	192	6
TAP	88	0	0
TAP	88	0	7
TAP	88	96	1
TAP	88	96	6
TAP	88	192	2
TAP	88	192	5
HLD	89	0	2	192
HLD	89	192	4	192
TAP	90	0	3
TAP	90	96	4
TAP	90	192	2
TAP	90	192	5
TAP	91	0	6
TAP	91	96	7
TAP	91	192	0
TAP	91	192	1
TAP	92	0	2
TAP	92	96	3
TAP	92	192	4
TAP	92	288	5
TAP	93	0	5
TAP	93	96	4
TAP	93	192	3
TAP	93	192	6
TAP	94	0	2
TAP	94	96	3
TAP	94	192	1
TAP	94	192	4
TAP	95	0	7
TAP	95	96	0
TAP	95	192	1
TAP	95	192	6
TAP	96	0	0
TAP	96	0	1
TAP	96	96	0
TAP	96	96	1
TAP	96	192	6
TAP	96	192	7
TAP	96	288	6
TAP	96	288	7
HLD	97	0	5	192
HLD	97	192	3	192
TAP	98	0	4
TAP	98	96	3
TAP	98	192	2
TAP	98	192	5
TAP	99	0	1
TAP	99	96	0
TAP	99	192	6
TAP	99	192	7
TAP	100	0	6
TAP	100	96	7
TAP	100	192	0
TAP	100	192	1
HLD	101	0	3	384
HLD	101	192	4	192
TAP	102	96	3
TAP	102	96	4
TAP	102	192	3
TAP	102	192	4
TAP	103	0	2
TAP	103	96	3
TAP	103	192	4
TAP	103	288	3
TAP	104	0	5
TAP	104	96	4
TAP	104	192	2
TAP	104	192	3
TAP	105	0	1
TAP	105	96	0
TAP	105	192	7
TAP	105	288	6
TAP	106	0	0
TAP	106	0	7
TAP	106	96	0
TAP	106	96	7
TAP	106	192	1
TAP	106	192	6
TAP	107	0	1
TAP	107	96	0
TAP	107	192	7
TAP	107	288	0
TAP	108	0	6
TAP	108	96	7
TAP	108	192	0
TAP	108	192	1
TAP	109	0	2
TAP	109	96	3
TAP	109	192	4
TAP	109	288	5
TAP	110	0	3
TAP	110	0	4
TAP	110	96	3
TAP	110	96	4
TAP	110	192	2
TAP	110	192	5
TAP	111	0	1
TAP	111	96	2
TAP	111	192	3
TAP	111	288	2
TAP	112	0	6
TAP	112	96	5
TAP	112	192	3
TAP	112	192	4
TAP	113	0	2
TAP	113	96	3
TAP	113	192	4
TAP	113	288	5
TAP	114	0	1
TAP	114	0	6
TAP	114	96	1
TAP	114	96	6
TAP	114	192	0
TAP	114	192	7
TAP	115	0	2
TAP	115	96	1
TAP	115	192	0
TAP	115	288	1
TAP	116	0	5
TAP	116	96	6
TAP	116	192	0
TAP	116	192	7
TAP	117	0	1
TAP	117	96	0
TAP	117	192	7
TAP	117	288	6
TAP	118	0	0
TAP	118	0	7
TAP	118	96	1
TAP	118	96	6
TAP	118	192	2
TAP	118	192	5
TAP	118	288	3
TAP	118	288	4

T_REC_TAP	416
T_REC_BRK	6
T_REC_XTP	0
T_REC_HLD	8
T_REC_XHO	0
T_REC_STR	6
T_REC_BST	0
T_REC_XST	0
T_REC_TTP	0
T_REC_THO	0
T_REC_SLD	6
T_REC_ALL	442
T_NUM_TAP	422
T_NUM_BRK	6
T_NUM_HLD	8
T_NUM_SLD	6
T_NUM_ALL	442
T_JUDGE_TAP	428
T_JUDGE_HLD	36
T_JUDGE_SLD	6
T_JUDGE_ALL	470
TTM_EACHPAIRS	119
TTM_SCR_TAP	211000
TTM_SCR_BRK	15600
TTM_SCR_HLD	8000
TTM_SCR_SLD	9000
TTM_SCR_ALL	243600
TTM_SCR_S	235750
TTM_SCR_SS	243000
TTM_RAT_ACV	10024

