VERSION	0.00.00	1.03.00
FES_MODE	0
BPM_DEF	205.000	205.000	205.000	205.000
MET_DEF	4	4
RESOLUTION	384
CLK_DEF	384
COMPATIBLE_CODE	MA2

BPM	0	0	205.000
MET	0	0	4	4

TAP	11	0	0
TAP	12	0	0
TAP	13	0	0
TAP	15	0	7
TAP	16	0	7
TAP	17	0	7
HLD	19	0	0	384
TAP	21	0	1
TAP	22	0	1
TAP	23	0	0
TAP	24	0	0
TAP	25	0	7
TAP	26	0	7
TAP	27	0	6
TAP	28	0	6
TAP	29	0	5
TAP	29	192	5
TAP	31	0	4
TAP	31	192	4
TAP	33	0	3
TAP	33	192	3
TAP	35	0	2
TAP	35	192	2
TAP	37	0	1
TAP	38	0	0
TAP	38	0	1
TAP	39	0	6
TAP	39	0	7
TAP	40	0	0
TAP	40	0	7
TAP	41	0	0
TAP	41	192	0
TAP	42	0	0
TAP	42	96	0
TAP	43	0	1
TAP	43	192	1
TAP	44	0	1
TAP	44	96	1
TAP	45	0	2
TAP	45	192	2
TAP	46	0	2
TAP	46	96	2
TAP	47	0	3
TAP	47	192	3
TAP	48	0	3
TAP	48	96	3
TAP	49	0	4
TAP	49	192	4
TAP	50	0	4
TAP	50	96	4
TAP	51	0	5
TAP	51	192	5
TAP	52	0	5
TAP	52	96	5
TAP	53	0	6
TAP	53	192	6
TAP	54	0	6
TAP	54	96	6
TAP	55	0	7
TAP	55	192	7
TAP	56	0	7
TAP	56	96	7
STR	57	0	0
SI_	57	0	0	96	288	3
STR	59	0	4
SI_	59	0	4	96	288	7
STR	61	0	0
SI_	61	0	0	96	288	3
HLD	63	0	4	384
TAP	65	0	3
TAP	65	192	3
TAP	66	0	2
TAP	66	0	3
TAP	67	0	2
TAP	67	192	2
TAP	68	0	2
TAP	68	96	2
TAP	68	192	2
TAP	69	0	1
TAP	69	192	1
TAP	70	0	0
TAP	70	0	1
TAP	71	0	0
TAP	71	192	0
TAP	72	0	0
TAP	72	96	0
TAP	72	192	0
TAP	73	0	7
TAP	73	192	7
TAP	74	0	6
TAP	74	0	7
TAP	75	0	6
TAP	75	192	6
TAP	76	0	6
TAP	76	96	6
TAP	76	192	6
TAP	77	0	5
TAP	77	192	5
TAP	78	0	4
TAP	78	0	5
TAP	79	0	4
TAP	79	192	4
TAP	80	0	4
TAP	80	96	4
TAP	80	192	4
STR	81	0	3
SI_	81	0	3	96	288	0
STR	83	0	7
SI_	83	0	7	96	288	4
TAP	85	0	2
TAP	85	0	3
TAP	85	192	2
TAP	85	192	3
TAP	86	0	2
TAP	86	96	2
TAP	86	192	2
TAP	87	0	0
TAP	87	0	1
TAP	87	192	0
TAP	87	192	1
TAP	88	0	0
TAP	88	96	0
TAP	88	192	0
TAP	89	0	6
TAP	89	0	7
TAP	89	192	6
TAP	89	192	7
TAP	90	0	6
TAP	90	96	6
TAP	90	192	6
TAP	91	0	4
TAP	91	0	5
TAP	91	192	4
TAP	91	192	5
TAP	92	0	4
TAP	92	96	4
BRK	92	192	4
TAP	93	0	4
TAP	93	96	4
TAP	93	192	4
TAP	94	0	5
TAP	94	96	5
TAP	94	192	5
TAP	95	0	6
TAP	95	96	6
TAP	95	192	6
TAP	96	0	7
TAP	96	96	7
TAP	96	192	7
TAP	97	0	0
TAP	97	96	0
TAP	97	192	0
TAP	98	0	1
TAP	98	96	1
TAP	98	192	1
TAP	99	0	2
TAP	99	96	2
TAP	99	192	2
TAP	100	0	3
TAP	100	96	3
TAP	100	192	3
TAP	101	0	3
TAP	101	0	4
TAP	102	0	3
TAP	102	0	4
TAP	102	192	3
TAP	102	192	4
TAP	103	0	3
TAP	103	192	3
TAP	104	0	2
TAP	104	192	2
TAP	105	0	1
TAP	105	192	1
TAP	106	0	0
TAP	106	0	7
TAP	107	0	7
TAP	107	192	7
TAP	108	0	6
TAP	108	192	6
TAP	109	0	5
TAP	109	192	5
TAP	110	0	3
TAP	110	0	4
TAP	111	0	4
TAP	111	192	5
TAP	112	0	6
TAP	112	192	7
TAP	113	0	0
TAP	113	192	1
TAP	114	0	2
TAP	114	0	3
TAP	115	0	3
TAP	115	192	2
TAP	116	0	1
TAP	116	192	0
TAP	117	0	7
TAP	117	192	6
TAP	118	0	4
TAP	118	0	5
BRK	119	0	4

T_REC_TAP	186
T_REC_BRK	2
T_REC_XTP	0
T_REC_HLD	2
T_REC_XHO	0
T_REC_STR	5
T_REC_BST	0
T_REC_XST	0
T_REC_TTP	0
T_REC_THO	0
T_REC_SLD	5
T_REC_ALL	200
T_NUM_TAP	191
T_NUM_BRK	2
T_NUM_HLD	2
T_NUM_SLD	5
T_NUM_ALL	200
T_JUDGE_TAP	193
T_JUDGE_HLD	16
T_JUDGE_SLD	5
T_JUDGE_ALL	214
TTM_EACHPAIRS	22
TTM_SCR_TAP	95500
TTM_SCR_BRK	5200
TTM_SCR_HLD	2000
TTM_SCR_SLD	7500
TTM_SCR_ALL	110200
TTM_SCR_S	106700
TTM_SCR_SS	110000
TTM_RAT_ACV	10018

