VERSION	0.00.00	1.03.00
FES_MODE	0
BPM_DEF	230.000	230.000	230.000	230.000
MET_DEF	4	4
RESOLUTION	384
CLK_DEF	384
COMPATIBLE_CODE	MA2

BPM	0	0	230.000
MET	0	0	4	4

TAP	3	0	3
TAP	3	0	4
TAP	6	240	3
TAP	6	264	4
TAP	6	288	2
TAP	6	288	5
TAP	7	0	3
TAP	7	0	4
TAP	7	96	0
STR	7	144	7
SI_	7	144	7	96	48	2
STR	7	240	0
SI_	7	240	0	96	48	5
STR	7	336	6
SI_	7	336	6	96	48	3
STR	8	48	1
SI_	8	48	1	96	48	4
STR	8	144	7
SI_	8	144	7	96	48	3
TAP	8	240	0
TAP	8	288	0
TAP	9	0	3
TAP	9	0	4
TAP	9	96	7
STR	9	144	0
SI_	9	144	0	96	48	5
STR	9	240	7
SI_	9	240	7	96	48	2
STR	9	336	1
SI_	9	336	1	96	48	4
STR	10	48	6
SI_	10	48	6	96	48	3
TAP	10	144	0
TAP	10	192	0
TAP	10	240	7
TAP	10	288	1
TAP	10	288	6
TAP	11	0	3
TAP	11	0	4
TAP	11	96	7
STR	11	144	0
SI_	11	144	0	96	48	5
STR	11	240	7
SI_	11	240	7	96	48	2
STR	11	336	1
SI_	11	336	1	96	48	4
STR	12	48	6
SI_	12	48	6	96	48	3
STR	12	144	0
SI_	12	144	0	96	48	4
TAP	12	240	7
TAP	12	288	7
TAP	13	0	3
TAP	13	0	4
TAP	13	96	0
STR	13	144	7
SI_	13	144	7	96	48	2
STR	13	240	0
SI_	13	240	0	96	48	5
STR	13	336	6
SI_	13	336	6	96	48	3
STR	14	48	1
SI_	14	48	1	96	48	4
TAP	14	144	7
TAP	14	192	7
TAP	14	240	0
TAP	14	288	1
TAP	14	288	6
TAP	15	0	3
TAP	15	0	6
TAP	15	48	7
TAP	15	96	2
TAP	15	144	3
TAP	15	192	1
TAP	15	192	4
TAP	15	240	0
TAP	15	288	5
TAP	15	336	4
TAP	16	0	3
TAP	16	0	6
TAP	16	48	5
TAP	16	96	2
TAP	16	144	3
TAP	16	192	1
TAP	16	192	4
TAP	16	240	2
TAP	16	288	5
TAP	16	336	4
TAP	17	0	3
TAP	17	0	6
TAP	17	48	7
TAP	17	96	2
TAP	17	144	3
TAP	17	192	1
TAP	17	192	4
TAP	17	240	0
TAP	17	288	5
TAP	17	336	4
TAP	18	0	3
TAP	18	0	6
TAP	18	48	5
TAP	18	96	2
TAP	18	144	3
TAP	18	192	1
TAP	18	192	4
TAP	18	240	2
TAP	18	288	5
TAP	18	336	4
TAP	19	0	0
TAP	19	0	5
TAP	19	48	7
TAP	19	96	2
TAP	19	144	3
TAP	19	192	1
TAP	19	192	4
TAP	19	240	0
TAP	19	288	5
TAP	19	336	4
TAP	20	0	1
TAP	20	0	5
TAP	20	48	6
TAP	20	96	1
TAP	20	144	0
TAP	20	192	2
TAP	20	192	7
TAP	20	240	1
TAP	20	288	6
TAP	20	336	7
TAP	21	0	0
TAP	21	0	5
TAP	21	48	7
TAP	21	96	2
TAP	21	144	3
TAP	21	192	1
TAP	21	192	4
TAP	21	240	0
TAP	21	288	5
TAP	21	336	4
TAP	22	0	1
TAP	22	0	5
TAP	22	48	6
TAP	22	96	1
TAP	22	144	0
TAP	22	192	2
TAP	22	192	7
TAP	22	240	1
TAP	22	288	6
TAP	22	336	7
TAP	23	0	0
TAP	23	0	7
TAP	23	48	0
TAP	23	48	7
TAP	23	96	0
TAP	23	96	7
TAP	23	144	0
TAP	23	144	7
TAP	23	192	0
TAP	23	192	7
TAP	23	240	0
TAP	23	240	7
TAP	23	288	0
TAP	23	288	7
TAP	23	336	0
TAP	23	336	7
TAP	24	0	0
TAP	24	0	7
TAP	24	48	0
TAP	24	48	7
TAP	24	96	0
TAP	24	96	7
TAP	24	144	0
TAP	24	144	7
TAP	24	192	0
TAP	24	192	7
TAP	24	240	0
TAP	24	240	7
TAP	24	288	0
TAP	24	288	7
TAP	24	336	0
TAP	24	336	7
TAP	25	0	3
TAP	25	96	3
TAP	25	192	4
TAP	25	288	4
TAP	26	0	3
TAP	26	96	2
TAP	26	192	3
TAP	26	288	4
TAP	27	0	5
TAP	27	96	4
TAP	27	192	3
TAP	27	288	2
TAP	28	0	0
TAP	28	0	1
TAP	28	96	2
TAP	28	96	7
TAP	28	192	3
TAP	28	192	6
TAP	29	0	4
TAP	29	96	4
TAP	29	192	3
TAP	29	288	3
TAP	30	0	4
TAP	30	96	5
TAP	30	192	4
TAP	30	288	3
TAP	31	0	2
TAP	31	96	3
TAP	31	192	4
TAP	31	288	5
TAP	32	0	6
TAP	32	0	7
TAP	32	96	0
TAP	32	96	5
TAP	32	192	1
TAP	32	192	4
BRK	32	288	2
BRK	32	288	3
TAP	33	0	0
TAP	33	0	1
TAP	33	48	0
TAP	33	48	1
TAP	33	96	2
TAP	33	96	7
TAP	33	144	2
TAP	33	144	7
TAP	33	192	2
TAP	33	192	7
TAP	33	288	4
TAP	33	288	5
TAP	34	0	2
TAP	34	48	3
TAP	34	144	5
TAP	34	192	4
TAP	34	288	3
TAP	34	288	6
STR	35	0	1
SI_	35	0	1	96	48	4
TAP	35	96	0
STR	35	192	6
SI_	35	192	6	96	48	3
TAP	35	288	7
TAP	36	0	0
TAP	36	0	1
TAP	36	96	4
TAP	36	96	5
TAP	36	192	2
TAP	36	192	7
TAP	37	0	6
TAP	37	0	7
TAP	37	48	6
TAP	37	48	7
TAP	37	96	0
TAP	37	96	5
TAP	37	144	0
TAP	37	144	5
TAP	37	192	0
TAP	37	192	5
TAP	37	288	2
TAP	37	288	3
TAP	38	0	5
TAP	38	48	4
TAP	38	144	2
TAP	38	192	3
TAP	38	288	1
TAP	38	288	4
STR	39	0	6
SI_	39	0	6	96	48	3
TAP	39	96	7
STR	39	192	1
SI_	39	192	1	96	48	4
TAP	39	288	0
STR	40	0	5
SI_	40	0	5	96	48	7
STR	40	96	2
SI_	40	96	2	96	48	0
STR	40	192	4
SI_	40	192	4	96	48	0
STR	40	288	3
SCL	40	288	3	96	192	4
TAP	41	288	4
STR	42	0	4
SCR	42	0	4	96	192	3
TAP	43	0	1
TAP	43	0	6
TAP	43	96	7
STR	43	144	0
SI_	43	144	0	96	48	3
STR	43	240	4
SI_	43	240	4	96	48	7
STR	43	336	1
SI_	43	336	1	96	48	6
STR	44	48	5
SI_	44	48	5	96	48	2
TAP	44	144	0
TAP	44	192	0
TAP	44	240	1
TAP	44	288	2
TAP	44	288	7
STR	45	0	5
SUL	45	0	5	96	192	2
STR	46	0	1
SSR	46	0	1	96	192	5
TAP	47	0	1
TAP	47	0	6
TAP	47	96	0
STR	47	144	7
SI_	47	144	7	96	48	4
STR	47	240	3
SI_	47	240	3	96	48	0
STR	47	336	6
SI_	47	336	6	96	48	1
STR	48	48	2
SI_	48	48	2	96	48	5
TAP	48	144	7
TAP	48	192	7
TAP	48	240	6
TAP	48	288	0
TAP	48	288	5
TAP	49	0	0
TAP	49	0	7
TAP	49	96	2
STR	49	144	2
SI_	49	144	2	96	48	7
STR	49	240	6
SI_	49	240	6	96	48	3
STR	49	336	1
SI_	49	336	1	96	48	4
STR	50	48	5
SI_	50	48	5	96	48	0
TAP	50	144	2
TAP	50	192	2
TAP	50	240	3
TAP	50	288	1
TAP	50	288	4
TAP	51	0	0
TAP	51	0	7
TAP	51	96	5
STR	51	144	5
SI_	51	144	5	96	48	0
STR	51	240	1
SI_	51	240	1	96	48	4
STR	51	336	6
SI_	51	336	6	96	48	3
STR	52	48	2
SI_	52	48	2	96	48	7
TAP	52	144	5
TAP	52	192	5
TAP	52	240	4
TAP	52	288	3
TAP	52	288	6
TAP	53	0	3
TAP	53	0	4
TAP	53	96	6
STR	53	144	6
SCL	53	144	6	96	48	3
STR	53	240	2
SCL	53	240	2	96	48	7
STR	53	336	4
SCR	53	336	4	96	48	7
STR	54	48	0
SCR	54	48	0	96	48	3
TAP	54	144	7
STR	54	192	7
SI_	54	192	7	96	48	3
STR	54	372	0
SI_	54	372	0	96	48	5
STR	54	372	1
SI_	54	372	1	96	48	4
TAP	55	96	0
TAP	55	96	1
TAP	55	192	3
TAP	55	192	6
TAP	55	288	5
TAP	55	336	4
TAP	56	48	1
TAP	56	96	3
TAP	56	144	2
TAP	56	192	1
TAP	56	192	4
TAP	56	288	6
TAP	56	336	7
TAP	57	0	0
TAP	57	0	5
TAP	57	96	2
TAP	57	96	7
TAP	57	192	0
TAP	57	192	7
TAP	57	288	3
STR	57	336	3
SCL	57	336	3	96	48	0
TAP	58	48	7
STR	58	96	7
SCL	58	96	7	96	96	3
STR	58	192	3
SCL	58	192	3	96	96	7
TAP	58	288	7
STR	59	0	6
SI_	59	0	6	96	48	3
TAP	59	96	6
TAP	59	192	1
TAP	59	192	4
TAP	59	288	2
TAP	59	336	3
TAP	60	48	6
TAP	60	96	4
TAP	60	144	5
TAP	60	192	3
TAP	60	192	6
TAP	60	288	1
TAP	60	336	0
TAP	61	0	2
TAP	61	0	7
TAP	61	96	0
TAP	61	96	5
TAP	61	192	1
TAP	61	192	6
TAP	61	288	0
TAP	61	288	4
STR	61	336	0
SUR	61	336	0	96	48	4
STR	61	336	4
SUR	61	336	4	96	48	0
BRK	62	192	2
BRK	62	192	6
STR	63	0	6
SI_	63	0	6	96	48	3
STR	63	0	7
SI_	63	0	7	96	48	2
TAP	63	96	6
TAP	63	96	7
TAP	63	192	1
TAP	63	192	4
TAP	63	288	2
TAP	63	336	3
TAP	64	48	6
TAP	64	96	4
TAP	64	144	5
TAP	64	192	3
TAP	64	192	6
TAP	64	288	1
TAP	64	336	0
TAP	65	0	2
TAP	65	0	7
TAP	65	96	0
TAP	65	96	5
TAP	65	192	0
TAP	65	192	7
TAP	65	288	4
STR	65	336	4
SCR	65	336	4	96	48	7
TAP	66	48	0
STR	66	96	0
SCR	66	96	0	96	96	4
STR	66	192	4
SCR	66	192	4	96	96	0
TAP	66	288	0
STR	67	0	1
SI_	67	0	1	96	48	4
TAP	67	96	1
TAP	67	192	3
TAP	67	192	6
TAP	67	288	5
TAP	67	336	4
TAP	68	48	1
TAP	68	96	3
TAP	68	144	2
TAP	68	192	1
TAP	68	192	4
TAP	68	288	0
TAP	68	288	7
TAP	68	336	0
TAP	68	336	7
TAP	69	0	1
TAP	69	0	6
TAP	69	48	1
TAP	69	48	6
TAP	69	144	4
TAP	69	192	5
TAP	69	240	3
TAP	69	288	2
HLD	69	336	3	96
HLD	69	336	4	96
TAP	70	96	3
TAP	70	96	4
TAP	70	144	2
TAP	70	144	5
TAP	70	192	0
TAP	70	192	7
TAP	70	240	0
TAP	70	240	7
TAP	70	288	0
TAP	70	288	7
TAP	70	336	0
TAP	70	336	7
TAP	71	0	0
TAP	71	0	7
TAP	71	64	1
TAP	71	64	6
TAP	71	128	2
TAP	71	128	5
TAP	71	192	3
TAP	71	216	4
TAP	71	240	3
TAP	71	264	5
TAP	71	288	2
TAP	72	0	5
TAP	72	96	4
TAP	72	96	6
TAP	72	192	1
TAP	72	240	4
TAP	72	288	2
TAP	72	336	3
STR	73	0	2
SUR	73	0	2	96	144	3
TAP	74	0	2
TAP	74	96	1
TAP	74	96	3
TAP	74	192	6
TAP	74	240	3
TAP	74	288	5
TAP	74	336	4
STR	75	0	5
SUL	75	0	5	96	144	4
TAP	76	0	6
TAP	76	96	5
TAP	76	96	7
TAP	76	192	2
TAP	76	240	7
TAP	76	288	1
TAP	76	336	0
STR	77	0	1
SUL	77	0	1	96	144	0
TAP	78	0	1
TAP	78	96	0
TAP	78	96	2
TAP	78	192	5
TAP	78	240	0
TAP	78	288	6
TAP	78	336	7
STR	79	0	6
SUR	79	0	6	96	144	7
STR	79	360	6
SI_	79	360	6	96	48	3
STR	80	72	1
SI_	80	72	1	96	48	4
TAP	80	72	6
TAP	80	168	1
STR	80	168	5
SI_	80	168	5	96	48	0
TAP	80	264	5
STR	80	360	1
SI_	80	360	1	96	48	4
TAP	81	72	1
STR	81	72	6
SI_	81	72	6	96	48	3
STR	81	168	2
SI_	81	168	2	96	48	7
TAP	81	168	6
TAP	81	264	2
STR	81	360	6
SI_	81	360	6	96	48	3
STR	82	72	2
SI_	82	72	2	96	48	7
TAP	82	72	6
TAP	82	168	2
STR	82	168	5
SI_	82	168	5	96	48	0
TAP	82	264	5
STR	82	360	1
SI_	82	360	1	96	48	4
TAP	83	72	1
STR	83	72	5
SI_	83	72	5	96	48	0
STR	83	168	2
SI_	83	168	2	96	48	7
TAP	83	168	5
TAP	83	264	2
STR	83	360	5
SI_	83	360	5	96	48	0
STR	84	72	1
SI_	84	72	1	96	48	4
TAP	84	72	5
TAP	84	168	1
STR	84	168	7
SI_	84	168	7	96	48	3
TAP	84	264	7
STR	84	360	2
SI_	84	360	2	96	48	7
TAP	85	72	2
STR	85	72	6
SI_	85	72	6	96	48	3
STR	85	168	0
SI_	85	168	0	96	48	4
TAP	85	168	6
TAP	85	264	0
STR	85	360	5
SI_	85	360	5	96	48	7
STR	86	72	3
SI_	86	72	3	96	48	1
TAP	86	72	5
TAP	86	168	3
STR	86	168	4
SI_	86	168	4	96	48	0
STR	86	264	3
SI_	86	264	3	96	48	7
TAP	86	264	4
TAP	86	360	3
STR	86	360	4
SI_	86	360	4	96	48	6
STR	87	72	2
SCR	87	72	2	96	168	0
TAP	87	72	4
STR	88	0	6
SCL	88	0	6	96	48	3
TAP	88	48	7
TAP	88	96	0
STR	88	144	1
SI_	88	144	1	96	48	4
STR	88	240	0
SI_	88	240	0	96	48	5
STR	88	336	1
SCR	88	336	1	96	48	4
TAP	89	48	0
TAP	89	96	7
STR	89	144	6
SCR	89	144	6	96	48	1
TAP	89	240	4
STR	90	0	1
SCR	90	0	1	96	48	4
TAP	90	48	0
TAP	90	96	7
STR	90	144	6
SI_	90	144	6	96	48	3
STR	90	240	7
SI_	90	240	7	96	48	2
STR	90	336	6
SCL	90	336	6	96	48	3
TAP	91	48	7
TAP	91	96	0
STR	91	144	1
SCL	91	144	1	96	48	6
TAP	91	240	3
STR	92	0	6
SCL	92	0	6	96	48	3
TAP	92	48	7
TAP	92	96	0
STR	92	144	1
SCR	92	144	1	96	48	4
STR	92	240	0
SV_	92	240	0	96	48	5
STR	92	336	1
SCR	92	336	1	96	48	4
TAP	93	48	0
TAP	93	96	7
STR	93	144	6
SCR	93	144	6	96	48	1
TAP	93	240	4
STR	94	0	1
SCR	94	0	1	96	48	4
TAP	94	48	0
TAP	94	96	7
STR	94	144	6
SCL	94	144	6	96	48	3
STR	94	240	7
SV_	94	240	7	96	48	2
STR	94	336	6
SCL	94	336	6	96	48	3
TAP	95	48	7
TAP	95	96	0
STR	95	144	1
SI_	95	144	1	96	48	5
BRK	96	0	3
BRK	96	0	4
BRK	97	192	0
STR	98	0	0
SI_	98	0	0	96	48	4
STR	98	0	1
SI_	98	0	1	96	48	5
TAP	98	96	0
TAP	98	96	1
TAP	98	192	3
TAP	98	192	6
TAP	98	288	6
TAP	98	336	7
TAP	99	48	1
TAP	99	96	3
TAP	99	144	2
TAP	99	192	1
TAP	99	192	4
STR	99	288	6
SCL	99	288	6	96	48	3
TAP	99	336	7
TAP	100	0	6
STR	100	96	1
SCR	100	96	1	96	48	4
TAP	100	144	0
TAP	100	192	1
TAP	100	288	5
TAP	100	336	4
TAP	101	48	0
TAP	101	64	1
TAP	101	80	2
TAP	101	96	3
TAP	101	112	4
TAP	101	128	5
TAP	101	144	6
TAP	101	160	7
TAP	101	176	0
TAP	101	192	1
TAP	101	208	2
TAP	101	224	3
TAP	101	240	4
TAP	101	256	5
TAP	101	272	6
TAP	101	288	7
STR	102	0	2
SI_	102	0	2	96	48	6
STR	102	0	3
SI_	102	0	3	96	48	7
TAP	102	96	2
TAP	102	96	3
TAP	102	192	0
TAP	102	192	5
TAP	102	288	1
TAP	102	336	0
TAP	103	48	6
TAP	103	96	4
TAP	103	144	5
TAP	103	192	3
TAP	103	192	6
STR	103	288	2
SI_	103	288	2	96	48	5
TAP	103	336	3
TAP	104	0	2
STR	104	96	6
SI_	104	96	6	96	48	1
TAP	104	144	7
TAP	104	192	6
TAP	104	288	2
TAP	104	336	3
TAP	105	48	5
TAP	105	96	7
TAP	105	144	6
BRK	105	192	0
BRK	105	192	5
STR	106	0	6
SI_	106	0	6	96	48	2
STR	106	0	7
SI_	106	0	7	96	48	3
TAP	106	96	6
TAP	106	96	7
TAP	106	192	1
TAP	106	192	4
TAP	106	288	1
TAP	106	336	0
TAP	107	48	6
TAP	107	96	4
TAP	107	144	5
TAP	107	192	4
TAP	107	192	6
STR	107	288	1
SCR	107	288	1	96	48	4
TAP	107	336	0
TAP	108	0	1
STR	108	96	6
SCL	108	96	6	96	48	3
TAP	108	144	7
TAP	108	192	6
TAP	108	288	2
TAP	108	336	3
TAP	109	48	7
TAP	109	64	6
TAP	109	80	5
TAP	109	96	4
TAP	109	112	3
TAP	109	128	2
TAP	109	144	1
TAP	109	160	0
TAP	109	176	7
TAP	109	192	6
TAP	109	208	5
TAP	109	224	4
TAP	109	240	3
TAP	109	256	2
TAP	109	272	1
TAP	109	288	0
STR	110	0	4
SI_	110	0	4	96	48	0
STR	110	0	5
SI_	110	0	5	96	48	1
TAP	110	96	4
TAP	110	96	5
TAP	110	192	2
TAP	110	192	7
TAP	110	288	6
TAP	110	336	7
TAP	111	48	1
TAP	111	96	3
TAP	111	144	2
TAP	111	192	1
TAP	111	192	4
TAP	111	288	0
TAP	111	288	7
TAP	111	336	0
TAP	111	336	7
TAP	112	0	1
TAP	112	0	6
TAP	112	48	2
TAP	112	48	5
TAP	112	144	3
TAP	112	192	5
TAP	112	240	4
TAP	112	288	6
TAP	112	336	2
TAP	113	0	3
TAP	113	48	1
TAP	113	96	4
TAP	113	144	3
BRK	113	192	1
BRK	113	192	6
BRK	114	96	3
BRK	114	96	4
HLD	114	192	6	96
HLD	114	288	5	96
TAP	115	0	4
STR	115	48	4
SUR	115	48	4	96	96	0
STR	115	144	0
SCR	115	144	0	96	96	3
STR	115	240	3
SUR	115	240	3	96	96	7
TAP	115	336	7
TAP	116	48	0
TAP	116	96	0
HLD	116	192	2	96
HLD	116	288	1	96
TAP	117	0	0
TAP	117	48	0
TAP	117	144	2
TAP	117	144	7
STR	117	240	6
SI_	117	240	6	96	48	3
TAP	117	288	6
STR	117	336	2
SI_	117	336	2	96	48	7
TAP	118	0	2
TAP	118	48	4
TAP	118	96	4
HLD	118	192	1	96
HLD	118	288	2	96
TAP	119	0	3
TAP	119	48	3
HLD	119	144	5	96
TAP	119	240	4
TAP	119	288	4
TAP	120	0	2
TAP	120	0	7
TAP	120	96	3
TAP	120	96	4
HLD	120	192	5	96
HLD	120	288	6	96
TAP	121	0	7
TAP	121	48	7
HLD	121	144	1	96
TAP	121	240	6
TAP	121	288	0
TAP	121	336	7
TAP	122	0	1
TAP	122	0	6
HLD	122	192	1	96
HLD	122	288	2	96
TAP	123	0	3
STR	123	48	3
SUL	123	48	3	96	96	7
STR	123	144	7
SCL	123	144	7	96	96	4
STR	123	240	4
SUL	123	240	4	96	96	0
TAP	123	336	0
TAP	124	48	7
TAP	124	96	7
HLD	124	192	5	96
HLD	124	288	6	96
TAP	125	0	7
TAP	125	48	7
TAP	125	144	0
TAP	125	144	5
STR	125	240	1
SI_	125	240	1	96	48	4
TAP	125	288	1
STR	125	336	5
SI_	125	336	5	96	48	0
TAP	126	0	5
TAP	126	48	3
TAP	126	96	3
HLD	126	192	6	96
HLD	126	288	5	96
TAP	127	0	4
TAP	127	48	4
HLD	127	144	2	96
TAP	127	240	3
TAP	127	288	3
TAP	128	0	0
TAP	128	0	5
TAP	128	96	3
TAP	128	96	4
HLD	128	192	2	96
HLD	128	288	1	96
TAP	129	0	0
TAP	129	48	0
HLD	129	144	6	96
TAP	129	240	1
TAP	129	288	7
TAP	129	336	0
BRK	130	0	1
BRK	130	0	6

T_REC_TAP	608
T_REC_BRK	15
T_REC_XTP	0
T_REC_HLD	22
T_REC_XHO	0
T_REC_STR	136
T_REC_BST	0
T_REC_XST	0
T_REC_TTP	0
T_REC_THO	0
T_REC_SLD	136
T_REC_ALL	917
T_NUM_TAP	744
T_NUM_BRK	15
T_NUM_HLD	22
T_NUM_SLD	136
T_NUM_ALL	917
T_JUDGE_TAP	759
T_JUDGE_HLD	44
T_JUDGE_SLD	136
T_JUDGE_ALL	939
TTM_EACHPAIRS	164
TTM_SCR_TAP	372000
TTM_SCR_BRK	39000
TTM_SCR_HLD	22000
TTM_SCR_SLD	204000
TTM_SCR_ALL	637000
TTM_SCR_S	616450
TTM_SCR_SS	635500
TTM_RAT_ACV	10023

