VERSION	0.00.00	1.03.00
FES_MODE	0
BPM_DEF	230.000	230.000	230.000	230.000
MET_DEF	4	4
RESOLUTION	384
CLK_DEF	384
COMPATIBLE_CODE	MA2

BPM	0	0	230.000
MET	0	0	4	4

TAP	3	0	3
TAP	3	0	4
HLD	7	0	3	96
HLD	7	0	4	96
TAP	7	144	3
TAP	7	144	4
TAP	7	240	2
TAP	7	288	2
HLD	8	0	3	96
HLD	8	0	4	96
TAP	8	144	3
TAP	8	144	4
TAP	8	240	5
TAP	8	288	5
HLD	9	0	2	96
HLD	9	0	3	96
TAP	9	144	2
TAP	9	144	3
TAP	9	240	2
TAP	9	288	3
HLD	10	0	4	96
HLD	10	0	5	96
TAP	10	144	4
TAP	10	144	5
TAP	10	240	5
TAP	10	288	4
HLD	11	0	6	96
HLD	11	0	7	96
TAP	11	144	6
TAP	11	144	7
TAP	11	240	6
TAP	11	288	7
HLD	12	0	0	96
HLD	12	0	1	96
TAP	12	144	0
TAP	12	144	1
TAP	12	240	1
TAP	12	288	0
HLD	13	0	0	96
HLD	13	0	7	96
TAP	13	144	1
TAP	13	144	6
TAP	13	240	0
TAP	13	288	7
TAP	14	0	1
TAP	14	0	6
TAP	14	96	2
TAP	14	96	5
TAP	14	192	3
TAP	14	192	4
TAP	15	0	2
TAP	15	96	2
TAP	15	96	3
TAP	15	192	2
TAP	15	288	2
TAP	15	288	3
TAP	16	0	5
TAP	16	96	4
TAP	16	96	5
TAP	16	192	5
TAP	16	288	4
TAP	16	288	5
TAP	17	0	2
TAP	17	96	1
TAP	17	96	3
TAP	17	192	2
TAP	17	288	1
TAP	17	288	3
TAP	18	0	5
TAP	18	96	4
TAP	18	96	6
TAP	18	192	5
TAP	18	288	4
TAP	18	288	6
TAP	19	0	1
TAP	19	96	0
TAP	19	96	1
TAP	19	192	1
TAP	19	288	0
TAP	19	288	1
TAP	20	0	6
TAP	20	96	6
TAP	20	96	7
TAP	20	192	6
TAP	20	288	6
TAP	20	288	7
TAP	21	0	1
TAP	21	96	0
TAP	21	96	2
TAP	21	192	1
TAP	21	288	0
TAP	21	288	2
TAP	22	0	6
TAP	22	96	5
TAP	22	96	7
TAP	22	192	6
TAP	22	288	5
TAP	22	288	7
TAP	23	0	3
TAP	23	0	4
TAP	23	96	3
TAP	23	96	4
TAP	23	192	2
TAP	23	192	5
TAP	23	288	2
TAP	23	288	5
TAP	24	0	3
TAP	24	48	4
TAP	24	96	3
TAP	24	144	4
BRK	24	192	3
TAP	25	0	2
TAP	25	96	3
TAP	25	192	2
TAP	25	192	3
TAP	25	288	1
TAP	26	0	5
TAP	26	96	4
TAP	26	192	4
TAP	26	192	5
TAP	26	288	6
TAP	27	0	2
TAP	27	96	0
TAP	27	96	4
TAP	27	192	5
TAP	27	288	3
TAP	27	288	7
TAP	28	0	2
TAP	28	0	6
TAP	28	96	1
TAP	28	96	5
TAP	28	192	0
TAP	28	192	4
TAP	29	0	1
TAP	29	96	0
TAP	29	192	0
TAP	29	192	1
TAP	29	288	4
TAP	30	0	6
TAP	30	96	7
TAP	30	192	6
TAP	30	192	7
TAP	30	288	3
TAP	31	0	1
TAP	31	96	0
TAP	31	96	5
TAP	31	192	6
TAP	31	288	2
TAP	31	288	7
TAP	32	0	1
TAP	32	0	6
TAP	32	96	3
TAP	32	96	4
TAP	32	192	0
TAP	32	192	7
TAP	33	0	5
TAP	33	96	4
TAP	33	192	4
TAP	33	192	5
TAP	33	288	6
TAP	34	0	2
TAP	34	96	3
TAP	34	192	2
TAP	34	192	3
TAP	34	288	1
TAP	35	0	5
TAP	35	96	3
TAP	35	96	7
TAP	35	192	2
TAP	35	288	0
TAP	35	288	4
TAP	36	0	1
TAP	36	0	5
TAP	36	96	2
TAP	36	96	6
TAP	36	192	3
TAP	36	192	7
TAP	37	0	6
TAP	37	96	7
TAP	37	192	6
TAP	37	192	7
TAP	37	288	3
TAP	38	0	1
TAP	38	96	0
TAP	38	192	0
TAP	38	192	1
TAP	38	288	4
TAP	39	0	6
TAP	39	96	0
TAP	39	96	5
TAP	39	192	1
TAP	39	288	2
TAP	39	288	7
TAP	40	0	2
TAP	40	96	3
TAP	40	96	4
TAP	40	192	5
TAP	40	288	3
TAP	40	288	4
HLD	41	0	2	384
TAP	41	0	3
TAP	41	288	6
HLD	42	0	6	384
TAP	42	288	5
STR	43	0	5
SCL	43	0	5	96	288	7
TAP	45	0	4
HLD	45	0	5	384
TAP	45	288	1
HLD	46	0	1	384
TAP	46	288	2
STR	47	0	2
SCR	47	0	2	96	288	0
TAP	48	288	1
TAP	48	288	6
STR	49	0	3
SCL	49	0	3	96	480	0
STR	49	0	4
SCR	49	0	4	96	480	7
HLD	51	0	5	96
TAP	51	96	4
TAP	51	144	4
TAP	51	240	5
TAP	51	288	5
STR	52	0	0
SSL	52	0	0	96	192	4
HLD	53	0	2	96
TAP	53	96	3
TAP	53	144	3
TAP	53	240	2
TAP	53	288	2
STR	54	0	7
SSR	54	0	7	96	192	3
HLD	55	0	2	96
TAP	55	96	6
HLD	55	192	5	96
TAP	55	288	1
TAP	56	0	2
TAP	56	0	3
TAP	56	96	0
TAP	56	96	5
TAP	56	192	2
TAP	56	192	3
TAP	57	0	3
TAP	57	0	4
TAP	57	96	1
TAP	57	96	6
TAP	57	192	2
TAP	57	192	4
TAP	57	288	3
TAP	57	288	5
TAP	58	0	2
TAP	58	0	3
TAP	58	96	0
TAP	58	96	1
TAP	58	192	6
TAP	58	192	7
TAP	58	288	4
TAP	58	288	5
TAP	59	0	2
TAP	59	96	0
TAP	59	96	6
TAP	59	192	5
TAP	59	288	1
TAP	59	288	7
TAP	60	0	3
TAP	60	96	3
TAP	60	192	0
TAP	60	192	6
TAP	61	0	2
TAP	61	96	2
TAP	61	192	7
TAP	61	288	7
TAP	62	0	3
TAP	62	96	4
TAP	62	96	5
BRK	62	192	0
BRK	62	192	1
HLD	63	0	5	96
TAP	63	96	1
HLD	63	192	2	96
TAP	63	288	6
TAP	64	0	4
TAP	64	0	5
TAP	64	96	2
TAP	64	96	7
TAP	64	192	4
TAP	64	192	5
TAP	65	0	3
TAP	65	0	4
TAP	65	96	1
TAP	65	96	6
TAP	65	192	3
TAP	65	192	5
TAP	65	288	2
TAP	65	288	4
TAP	66	0	4
TAP	66	0	5
TAP	66	96	6
TAP	66	96	7
TAP	66	192	0
TAP	66	192	1
TAP	66	288	2
TAP	66	288	3
TAP	67	0	5
TAP	67	96	1
TAP	67	96	7
TAP	67	192	2
TAP	67	288	0
TAP	67	288	6
TAP	68	0	4
TAP	68	96	4
TAP	68	192	1
TAP	68	192	7
TAP	69	0	5
TAP	69	96	5
TAP	69	192	0
TAP	69	288	0
TAP	70	0	4
TAP	70	96	2
TAP	70	96	3
BRK	70	192	6
BRK	70	192	7
STR	72	0	0
SI_	72	0	0	96	96	4
STR	72	192	6
SI_	72	192	6	96	96	2
STR	73	0	0
SCR	73	0	0	96	192	4
STR	74	0	7
SI_	74	0	7	96	96	3
STR	74	192	1
SI_	74	192	1	96	96	5
STR	75	0	7
SCL	75	0	7	96	192	3
STR	76	0	2
SI_	76	0	2	96	96	6
STR	76	192	4
SI_	76	192	4	96	96	0
STR	77	0	3
SCL	77	0	3	96	192	7
STR	78	0	5
SI_	78	0	5	96	96	1
STR	78	192	3
SI_	78	192	3	96	96	7
STR	79	0	4
SCR	79	0	4	96	192	0
HLD	79	360	1	288
TAP	80	72	0
TAP	80	168	0
TAP	80	264	0
HLD	80	360	6	288
TAP	81	72	7
TAP	81	168	7
TAP	81	264	7
HLD	81	360	2	288
TAP	82	72	3
TAP	82	168	3
TAP	82	264	3
HLD	82	360	5	288
TAP	83	72	4
TAP	83	168	4
TAP	83	264	4
HLD	83	360	2	96
TAP	84	72	3
HLD	84	168	5	96
TAP	84	264	4
HLD	84	360	1	96
TAP	85	72	0
HLD	85	168	6	96
TAP	85	264	7
TAP	85	360	0
TAP	86	72	7
TAP	86	168	1
TAP	86	168	6
TAP	86	264	0
TAP	86	312	7
BRK	86	360	0
TAP	88	0	2
TAP	88	0	3
TAP	88	96	2
TAP	88	144	3
TAP	88	240	3
TAP	88	288	2
TAP	89	0	4
TAP	89	0	5
TAP	89	96	5
TAP	89	144	4
TAP	89	240	4
TAP	89	288	5
TAP	90	0	2
TAP	90	0	3
TAP	90	96	2
TAP	90	144	3
TAP	90	240	3
TAP	90	288	1
TAP	91	0	4
TAP	91	0	5
TAP	91	96	5
TAP	91	144	4
TAP	91	240	4
TAP	91	288	6
TAP	92	0	1
TAP	92	0	4
TAP	92	96	2
TAP	92	144	3
TAP	92	240	3
TAP	92	288	2
TAP	93	0	3
TAP	93	0	6
TAP	93	96	5
TAP	93	144	4
TAP	93	240	4
TAP	93	288	5
TAP	94	0	1
TAP	94	0	4
TAP	94	96	2
TAP	94	144	3
TAP	94	240	3
TAP	94	288	1
TAP	95	0	3
TAP	95	0	6
TAP	95	96	5
TAP	95	144	4
TAP	95	240	4
TAP	95	288	6
TAP	96	0	2
TAP	96	0	3
TAP	96	96	2
TAP	96	96	3
TAP	96	192	4
TAP	96	192	5
TAP	96	288	4
TAP	96	288	5
TAP	97	0	1
TAP	97	0	3
TAP	97	96	4
TAP	97	96	6
BRK	97	192	0
BRK	97	192	7
HLD	98	0	1	96
HLD	98	96	3	96
HLD	98	192	4	96
TAP	98	288	6
TAP	99	0	3
TAP	99	96	1
TAP	99	96	5
TAP	99	192	3
TAP	99	192	7
TAP	100	0	2
TAP	100	0	3
TAP	100	96	1
TAP	100	96	5
TAP	100	192	0
TAP	100	192	4
TAP	100	288	6
TAP	100	288	7
TAP	101	0	0
TAP	101	0	1
TAP	101	96	2
TAP	101	96	3
TAP	101	192	4
TAP	101	192	5
TAP	101	288	6
TAP	101	288	7
HLD	102	0	5	96
HLD	102	96	4	96
HLD	102	192	3	96
TAP	102	288	2
TAP	103	0	0
TAP	103	96	2
TAP	103	96	6
TAP	103	192	0
TAP	103	192	4
TAP	104	0	1
TAP	104	96	6
STR	104	192	0
SI_	104	192	0	96	96	3
TAP	105	0	6
TAP	105	96	6
BRK	105	192	0
BRK	105	192	2
HLD	106	0	6	96
HLD	106	96	4	96
HLD	106	192	3	96
TAP	106	288	1
TAP	107	0	4
TAP	107	96	2
TAP	107	96	6
TAP	107	192	0
TAP	107	192	4
TAP	108	0	4
TAP	108	0	5
TAP	108	96	2
TAP	108	96	6
TAP	108	192	3
TAP	108	192	7
TAP	108	288	0
TAP	108	288	1
TAP	109	0	6
TAP	109	0	7
TAP	109	96	4
TAP	109	96	5
TAP	109	192	2
TAP	109	192	3
TAP	109	288	0
TAP	109	288	1
HLD	110	0	2	96
HLD	110	96	3	96
HLD	110	192	4	96
TAP	110	288	5
TAP	111	0	7
TAP	111	96	1
TAP	111	96	5
TAP	111	192	3
TAP	111	192	7
TAP	112	0	6
TAP	112	96	1
STR	112	192	7
SI_	112	192	7	96	96	4
TAP	113	0	1
TAP	113	96	1
BRK	113	192	5
BRK	113	192	7
TAP	114	192	3
TAP	114	192	5
TAP	114	288	2
TAP	114	288	4
TAP	115	0	4
TAP	115	0	5
TAP	115	96	4
TAP	115	96	5
TAP	115	192	1
TAP	115	288	2
TAP	115	288	3
TAP	116	0	6
TAP	116	96	4
TAP	116	96	5
TAP	116	192	2
TAP	116	192	4
TAP	116	288	3
TAP	116	288	5
TAP	117	0	2
TAP	117	0	3
TAP	117	96	2
TAP	117	96	3
TAP	117	192	6
TAP	117	288	4
TAP	117	288	5
TAP	118	0	1
TAP	118	96	2
TAP	118	96	3
TAP	118	192	3
TAP	118	192	4
TAP	118	288	3
TAP	118	288	4
TAP	119	0	2
TAP	119	0	3
TAP	119	96	2
TAP	119	96	3
TAP	119	192	4
TAP	119	192	5
TAP	119	288	1
TAP	120	0	2
TAP	120	0	3
TAP	120	96	6
TAP	120	192	3
TAP	120	192	4
TAP	120	288	3
TAP	120	288	4
TAP	121	0	4
TAP	121	0	5
TAP	121	96	4
TAP	121	96	5
TAP	121	192	2
TAP	121	192	3
TAP	121	288	6
TAP	122	0	4
TAP	122	0	5
TAP	122	96	1
TAP	122	192	4
TAP	122	192	5
TAP	122	288	0
TAP	122	288	1
TAP	123	0	2
TAP	123	0	3
TAP	123	96	4
TAP	123	96	6
TAP	123	192	0
TAP	123	288	2
TAP	123	288	3
TAP	124	0	7
TAP	124	96	4
TAP	124	96	5
TAP	124	192	2
TAP	124	192	3
TAP	124	288	6
TAP	124	288	7
TAP	125	0	4
TAP	125	0	5
TAP	125	96	1
TAP	125	96	3
TAP	125	192	7
TAP	125	288	4
TAP	125	288	5
TAP	126	0	0
TAP	126	96	2
TAP	126	96	3
TAP	126	192	4
TAP	126	192	6
TAP	126	288	4
TAP	126	288	6
TAP	127	0	1
TAP	127	0	3
TAP	127	96	1
TAP	127	96	3
TAP	127	192	4
TAP	127	192	5
TAP	127	288	0
TAP	128	0	2
TAP	128	0	3
TAP	128	96	7
TAP	128	192	3
TAP	128	192	5
TAP	128	288	2
TAP	128	288	4
TAP	129	0	4
TAP	129	0	5
TAP	129	96	2
TAP	129	96	3
TAP	129	192	4
TAP	129	192	6
TAP	129	288	1
TAP	129	288	3
BRK	130	0	0
BRK	130	0	7

T_REC_TAP	538
T_REC_BRK	14
T_REC_XTP	0
T_REC_HLD	44
T_REC_XHO	0
T_REC_STR	20
T_REC_BST	0
T_REC_XST	0
T_REC_TTP	0
T_REC_THO	0
T_REC_SLD	20
T_REC_ALL	636
T_NUM_TAP	558
T_NUM_BRK	14
T_NUM_HLD	44
T_NUM_SLD	20
T_NUM_ALL	636
T_JUDGE_TAP	572
T_JUDGE_HLD	128
T_JUDGE_SLD	20
T_JUDGE_ALL	720
TTM_EACHPAIRS	192
TTM_SCR_TAP	279000
TTM_SCR_BRK	36400
TTM_SCR_HLD	44000
TTM_SCR_SLD	30000
TTM_SCR_ALL	389400
TTM_SCR_S	376400
TTM_SCR_SS	388000
TTM_RAT_ACV	10036

